<?xml version="1.0" standalone="no"?>
<!DOCTYPE svg PUBLIC "-//W3C//DTD SVG 1.1//EN" "http://www.w3.org/Graphics/SVG/1.1/DTD/svg11.dtd">
<svg xmlns="http://www.w3.org/2000/svg">
<defs >
<font id="SourceSansPro" horiz-adv-x="507" ><font-face
    font-family="Source Sans Pro Black"
    units-per-em="1000"
    panose-1="2 11 8 3 3 4 3 9 2 4"
    ascent="984"
    descent="-273"
    alphabetic="0" />
<glyph unicode=" " glyph-name="space" horiz-adv-x="200" />
<glyph unicode="!" glyph-name="exclam" horiz-adv-x="350" d="M120 238L158 530L178 670H338L306 530L224 238H120ZM126 -12Q90 -12 68 11T46 72Q46 92 54 112T76 148T111 174T156 184Q192 184 214 160T236 100Q236 79 228 59T206 23T171 -2T126 -12Z" />
<glyph unicode="&quot;" glyph-name="quotedbl" horiz-adv-x="550" d="M118 338L138 530L158 670H316L284 530L222 338H118ZM358 338L378 530L398 670H556L524 530L462 338H358Z" />
<glyph unicode="#" glyph-name="numbersign" horiz-adv-x="516" d="M32 0L90 182H16L40 284H122L154 386H80L104 488H186L238 650H330L278 488H368L420 650H512L460 488H534L510 386H428L396 284H470L446 182H364L306 0H214L272 182H182L124 0H32ZM214 284H304L336
386H246L214 284Z" />
<glyph unicode="$" glyph-name="dollar" horiz-adv-x="520" d="M132 -110L153 -4Q111 7 72 30T2 90L100 186Q123 157 153 137T220 116Q256 116 274 131T292 176Q292 200 278 219T241 257T193 295T145 336T109 387T94 454Q94 494 107 529T146 590T206 632T285 654L304
754H408L388 646Q456 625 510 562L410 472Q390 498 365 513T314 528Q284 528 268 512T252 472Q252 450 266 433T303 398T351 361T399 319T435 265T450 196Q450 155 437 120T398 58T337 14T257 -9L236 -110H132Z" />
<glyph unicode="%" glyph-name="percent" horiz-adv-x="844" d="M194 258Q165 258 139 269T93 301T62 352T50 420Q50 475 64 521T104 602T166 655T246 674Q275 674 301 663T347 630T378 579T390 512Q390 457 376 411T336 330T274 277T194 258ZM204 352Q234 352
256 394T278 510Q278 543 268 561T236 580Q206 580 184 538T162 422Q162 389 172 371T204 352ZM144 -12L614 672H704L234 -12H144ZM614 -12Q585 -12 559 -1T513 31T482 82T470 150Q470 205 484 251T524 332T586 385T666 404Q695 404 721 393T767 360T798 309T810
242Q810 187 796 141T756 60T694 7T614 -12ZM624 82Q654 82 676 124T698 240Q698 273 688 291T656 310Q626 310 604 268T582 152Q582 119 592 101T624 82Z" />
<glyph unicode="&amp;" glyph-name="ampersand" horiz-adv-x="652" d="M208 -12Q114 -12 64 34T14 154Q14 194 26 225T58 280T104 324T160 359Q140 416 140 466Q140 506 156 541T200 604T266 646T348 662Q417 662 454 625T492 522Q492 486 478 457T440 403T388
359T327 320Q347 291 371 265T421 215Q452 250 475 288T516 372H660Q632 312 598 256T517 147Q543 134 567 127T610 114L548 -12Q475 2 406 47Q363 18 314 3T208 -12ZM272 470Q272 457 274 445T279 419Q318 440 343 464T369 525Q369 558 338 558Q313 558 293 535T272
470ZM236 108Q274 108 311 125Q255 181 214 248Q193 231 181 212T168 170Q168 143 185 126T236 108Z" />
<glyph unicode="&apos;" glyph-name="quotesingle" horiz-adv-x="310" d="M118 338L138 530L158 670H316L284 530L222 338H118Z" />
<glyph unicode="(" glyph-name="parenleft" horiz-adv-x="344" d="M112 -180Q101 -149 90 -112T71 -34T57 47T52 130Q52 217 67 295T112 446T186 590T288 734L380 688Q274 545 227 404T180 120Q180 89 182 55T188 -13T198 -80T214 -138L112 -180Z" />
<glyph unicode=")" glyph-name="parenright" horiz-adv-x="346" d="M64 -180L-28 -134Q78 9 125 150T172 434Q172 465 170 499T164 567T154 634T138 692L240 734Q251 702 262 665T281 588T295 506T300 424Q300 337 285 259T240 108T166 -36T64 -180Z" />
<glyph unicode="*" glyph-name="asterisk" horiz-adv-x="452" d="M172 340L112 396L190 498L92 556L128 630L238 596L272 714L354 708L346 586L464 600L476 520L362 480L400 370L326 328L262 424L172 340Z" />
<glyph unicode="+" glyph-name="plus" horiz-adv-x="520" d="M212 92V274H48V386H214V568H330V386H496V274H328V92H212Z" />
<glyph unicode="," glyph-name="comma" horiz-adv-x="310" d="M-10 -196L-26 -110Q36 -93 68 -63T111 2Q74 4 50 24T26 82Q26 102 33 120T53 153T86 175T130 184Q175 184 199 156T224 76Q224 24 208 -21T162 -101T89 -161T-10 -196Z" />
<glyph unicode="-" glyph-name="hyphen" horiz-adv-x="328" d="M32 198L56 310H296L272 198H32Z" />
<glyph unicode="." glyph-name="period" horiz-adv-x="310" d="M104 -12Q68 -12 46 11T24 72Q24 92 32 112T54 148T89 174T134 184Q170 184 192 160T214 100Q214 79 206 59T184 23T149 -2T104 -12Z" />
<glyph unicode="/" glyph-name="slash" horiz-adv-x="324" d="M-68 -160L280 710H384L34 -160H-68Z" />
<glyph unicode="0" glyph-name="zero" horiz-adv-x="520" d="M224 -12Q185 -12 151 1T91 43T51 116T36 220Q36 332 62 412T129 545T221 621T322 646Q361 646 395 632T454 590T493 517T508 412Q508 300 483 220T417 89T325 13T224 -12ZM234 110Q256 110 279 133T320
199T350 300T362 430Q362 485 348 504T312 524Q289 524 267 501T226 435T196 333T184 202Q184 174 187 157T197 129T213 114T234 110Z" />
<glyph unicode="1" glyph-name="one" horiz-adv-x="520" d="M16 0L42 128H170L240 474H124L144 574Q200 583 238 597T314 634H432L330 128H442L416 0H16Z" />
<glyph unicode="2" glyph-name="two" horiz-adv-x="520" d="M-14 0L4 90Q74 147 134 196T239 289T309 373T334 454Q334 484 317 502T268 520Q242 520 221 507T174 474L98 566Q193 646 288 646Q334 646 371 634T435 598T476 543T490 470Q490 423 473 382T424 301T350
221T258 134H450L424 0H-14Z" />
<glyph unicode="3" glyph-name="three" horiz-adv-x="520" d="M208 -12Q179 -12 149 -6T90 13T33 49T-18 104L82 186Q108 151 141 134T204 116Q249 116 274 134T300 188Q300 207 294 221T272 246T227 261T154 266L176 378Q222 378 252 384T300 402T325 429T332
464Q332 490 314 505T264 520Q243 520 223 511T172 484L96 586Q147 621 195 633T294 646Q338 646 375 635T439 604T481 554T496 490Q496 430 468 389T364 322V318Q415 297 437 262T460 186Q460 137 441 100T387 38T307 1T208 -12Z" />
<glyph unicode="4" glyph-name="four" horiz-adv-x="520" d="M384 0H238L267 146H8L30 258L316 634H510L437 268H506L482 146H413L384 0ZM184 268H291L308 354Q316 390 325 427T342 500H338Q320 470 303 439T266 380L184 268Z" />
<glyph unicode="5" glyph-name="five" horiz-adv-x="520" d="M208 -12Q151 -12 95 13T-8 104L92 186Q144 116 210 116Q249 116 278 142T308 216Q308 254 288 273T232 292Q221 292 212 291T194 287T172 279T144 264L86 312L164 634H522L496 500H276L248 400Q262
406 274 408T300 410Q336 410 367 399T421 367T457 315T470 242Q470 183 448 136T389 56T305 6T208 -12Z" />
<glyph unicode="6" glyph-name="six" horiz-adv-x="520" d="M256 -12Q209 -12 171 4T106 51T65 124T50 218Q50 315 74 394T141 529T245 615T376 646Q407 646 433 638T479 616T514 586T540 556L440 472Q426 492 409 505T366 518Q315 518 274 477T212 345Q225 358
240 368T271 386T301 396T328 400Q361 400 390 391T440 361T473 310T486 234Q486 188 469 144T422 65T350 9T256 -12ZM264 106Q284 106 298 117T322 146T335 183T340 221Q340 255 326 273T284 292Q266 292 245 280T199 237Q198 228 198 219T198 201Q198 153 216
130T264 106Z" />
<glyph unicode="7" glyph-name="seven" horiz-adv-x="520" d="M92 0Q137 160 197 283T350 500H96L122 634H554L534 534Q463 469 417 402T339 268T289 133T256 0H92Z" />
<glyph unicode="8" glyph-name="eight" horiz-adv-x="520" d="M238 -12Q204 -12 169 -3T104 27T57 78T38 154Q38 185 48 212T76 261T118 299T170 326V330Q116 387 116 460Q116 503 133 537T179 596T247 633T330 646Q362 646 394 638T451 611T492 565T508 496Q508
439 479 397T398 328V324Q434 300 454 263T474 178Q474 134 455 99T404 40T328 2T238 -12ZM328 372Q346 390 359 414T372 472Q372 498 361 516T318 534Q292 534 274 517T256 466Q256 435 274 414T328 372ZM250 98Q281 98 304 117T328 178Q328 210 304 232T234 280Q211
262 196 235T180 172Q180 143 197 121T250 98Z" />
<glyph unicode="9" glyph-name="nine" horiz-adv-x="520" d="M264 342Q282 342 303 354T349 397Q350 406 350 415T350 433Q350 481 332 504T284 528Q264 528 250 517T226 488T213 451T208 413Q208 379 222 361T264 342ZM172 -12Q140 -12 115 -4T69 18T34 48T8
78L108 162Q122 142 139 129T182 116Q233 116 274 157T336 289Q323 276 308 266T277 248T247 238T220 234Q187 234 158 243T108 273T75 324T62 400Q62 446 79 490T126 569T198 625T292 646Q339 646 377 630T442 583T483 510T498 416Q498 318 474 239T407 105T303
19T172 -12Z" />
<glyph unicode=":" glyph-name="colon" horiz-adv-x="310" d="M158 308Q122 308 100 331T78 392Q78 412 86 432T108 468T143 494T188 504Q224 504 246 480T268 420Q268 399 260 379T238 343T203 318T158 308ZM104 -12Q68 -12 46 11T24 72Q24 92 32 112T54 148T89
174T134 184Q170 184 192 160T214 100Q214 79 206 59T184 23T149 -2T104 -12Z" />
<glyph unicode=";" glyph-name="semicolon" horiz-adv-x="310" d="M158 308Q122 308 100 331T78 392Q78 412 86 432T108 468T143 494T188 504Q224 504 246 480T268 420Q268 399 260 379T238 343T203 318T158 308ZM-10 -196L-26 -110Q36 -93 68 -63T111 2Q74 4
50 24T26 82Q26 102 33 120T53 153T86 175T130 184Q175 184 199 156T224 76Q224 24 208 -21T162 -101T89 -161T-10 -196Z" />
<glyph unicode="&lt;" glyph-name="less" horiz-adv-x="520" d="M496 98L46 276V386L496 564V434L338 380L208 334V330L338 284L496 230V98Z" />
<glyph unicode="=" glyph-name="equal" horiz-adv-x="520" d="M48 394V506H496V394H48ZM48 411V523H496V411H48Z" />
<glyph unicode="&gt;" glyph-name="greater" horiz-adv-x="520" d="M48 98V230L206 284L336 330V334L206 380L48 434V564L498 386V276L48 98Z" />
<glyph unicode="?" glyph-name="question" horiz-adv-x="458" d="M146 244Q151 283 165 311T198 361T238 400T276 432T304 464T316 502Q316 526 301 540T260 554Q243 554 228 546T194 520L114 610Q189 682 280 682Q323 682 358 672T418 641T458 592T472 526Q472
487 460 460T428 410T385 370T341 332T304 288T282 232L146 244ZM168 -12Q132 -12 110 11T88 72Q88 92 96 112T118 148T153 174T198 184Q234 184 256 160T278 100Q278 79 270 59T248 23T213 -2T168 -12Z" />
<glyph unicode="@" glyph-name="at" horiz-adv-x="886" d="M390 -176Q322 -176 259 -156T148 -93T71 12T42 162Q42 270 80 363T183 526T333 634T512 674Q592 674 655 650T761 583T827 483T850 362Q850 280 830 219T776 118T697 57T600 36Q565 36 537 54T498 110H494Q476
81 444 64T382 46Q354 46 331 56T290 86T264 133T254 194Q254 242 270 287T315 367T380 423T460 444Q483 444 499 433T528 396H530L546 436H642L590 212Q581 171 590 153T630 134Q649 134 670 147T709 186T738 253T750 346Q750 390 738 432T695 508T617 561T496
582Q435 582 374 551T263 466T182 339T150 180Q150 113 172 64T231 -17T312 -64T404 -80Q428 -80 460 -71T516 -46L558 -132Q515 -153 474 -164T390 -176ZM416 144Q430 144 442 154T472 188L502 318Q490 344 464 344Q444 344 428 330T399 295T379 249T372 202Q372
175 382 160T416 144Z" />
<glyph unicode="A" glyph-name="A" horiz-adv-x="562" d="M266 344L232 268H352L350 344Q348 391 347 435T346 530H342Q322 482 305 437T266 344ZM-66 0L274 650H466L528 0H360L356 148H177L110 0H-66Z" />
<glyph unicode="B" glyph-name="B" horiz-adv-x="612" d="M26 0L156 650H364Q413 650 454 642T526 615T573 569T590 500Q590 447 554 403T450 338L448 334Q558 307 558 216Q558 157 535 116T472 50T381 12T272 0H26ZM264 390H318Q377 390 401 412T426 472Q426
528 338 528H292L264 390ZM210 122H284Q344 122 374 145T404 210Q404 282 316 282H242L210 122Z" />
<glyph unicode="C" glyph-name="C" horiz-adv-x="574" d="M310 -12Q253 -12 206 6T126 60T75 146T56 264Q56 351 83 424T159 550T270 632T406 662Q463 662 509 635T584 556L476 472Q441 524 398 524Q363 524 331 505T274 452T235 372T220 274Q220 203 249 165T344
126Q370 126 395 139T444 172L510 70Q496 57 476 43T431 16T375 -4T310 -12Z" />
<glyph unicode="D" glyph-name="D" horiz-adv-x="626" d="M26 0L156 650H308Q376 650 430 635T522 588T580 508T600 394Q600 295 573 221T497 98T382 25T240 0H26ZM212 128H236Q276 128 312 141T376 185T420 264T436 384Q436 422 426 448T399 491T357 515T304
522H290L212 128Z" />
<glyph unicode="E" glyph-name="E" horiz-adv-x="536" d="M26 0L156 650H552L526 516H288L266 402H468L442 268H240L212 134H458L432 0H26Z" />
<glyph unicode="F" glyph-name="F" horiz-adv-x="516" d="M26 0L156 650H552L526 516H288L262 382H464L438 248H236L186 0H26Z" />
<glyph unicode="G" glyph-name="G" horiz-adv-x="620" d="M320 -12Q259 -12 211 6T128 60T75 146T56 264Q56 351 84 424T160 550T274 632T416 662Q481 662 528 635T604 556L496 472Q478 499 458 511T408 524Q369 524 335 505T275 452T235 372T220 274Q220 203
249 164T348 124Q362 124 377 128T404 140L428 248H332L356 378H592L530 56Q492 27 438 8T320 -12Z" />
<glyph unicode="H" glyph-name="H" horiz-adv-x="664" d="M26 0L156 650H316L266 406H460L508 650H668L538 0H378L432 266H238L186 0H26Z" />
<glyph unicode="I" glyph-name="I" horiz-adv-x="310" d="M26 0L156 650H316L186 0H26Z" />
<glyph unicode="J" glyph-name="J" horiz-adv-x="504" d="M182 -12Q126 -12 74 13T-10 86L86 184Q101 163 125 145T182 126Q217 126 238 152T272 239L354 650H514L426 211Q417 166 399 126T351 55T279 6T182 -12Z" />
<glyph unicode="K" glyph-name="K" horiz-adv-x="622" d="M26 0L156 650H316L267 404H271L484 650H658L424 376L568 0H402L306 276L222 180L186 0H26Z" />
<glyph unicode="L" glyph-name="L" horiz-adv-x="514" d="M26 0L156 650H316L212 134H448L422 0H26Z" />
<glyph unicode="M" glyph-name="M" horiz-adv-x="754" d="M26 0L156 650H322L364 370L379 260H383L440 370L592 650H758L628 0H478L524 216Q529 241 536 271T553 331T571 390T588 444H585L504 292L366 56H306L264 292L244 444H241Q239 419 237 390T231 330T225
271T216 216L172 0H26Z" />
<glyph unicode="N" glyph-name="N" horiz-adv-x="652" d="M26 0L156 650H310L400 342L432 196H436Q438 222 440 253T445 316T452 380T462 442L504 650H656L526 0H372L282 308L252 454H248Q243 398 238 334T220 210L178 0H26Z" />
<glyph unicode="O" glyph-name="O" horiz-adv-x="670" d="M308 -12Q252 -12 206 6T126 60T75 146T56 264Q56 355 84 428T159 554T266 634T392 662Q448 662 494 644T574 590T625 504T644 386Q644 295 616 222T541 96T433 16T308 -12ZM316 126Q344 126 373 144T426
195T465 274T480 376Q480 447 455 485T384 524Q356 524 327 506T274 455T235 376T220 274Q220 203 245 165T316 126Z" />
<glyph unicode="P" glyph-name="P" horiz-adv-x="596" d="M26 0L156 650H370Q418 650 460 641T533 610T582 555T600 472Q600 401 575 352T508 271T411 226T294 212H228L186 0H26ZM254 338H313Q375 338 408 366T442 448Q442 487 418 505T348 524H290L254 338Z" />
<glyph unicode="Q" glyph-name="Q" horiz-adv-x="670" d="M316 126Q344 126 373 144T426 195T465 274T480 376Q480 447 455 485T384 524Q356 524 327 506T274 455T235 376T220 274Q220 203 245 165T316 126ZM492 -182Q279 -182 203 7Q134 35 95 100T56 264Q56
355 84 428T159 554T266 634T392 662Q448 662 494 644T574 590T625 504T644 386Q644 307 623 241T564 125T478 42T374 -4Q395 -30 430 -42T502 -54Q523 -54 539 -52T572 -44L578 -164Q560 -172 535 -177T492 -182Z" />
<glyph unicode="R" glyph-name="R" horiz-adv-x="612" d="M26 0L156 650H370Q419 650 461 641T534 612T582 558T600 478Q600 433 589 397T556 332T506 283T443 249L540 0H372L297 224H230L186 0H26ZM256 350H314Q379 350 410 378T442 454Q442 490 418 507T348
524H290L256 350Z" />
<glyph unicode="S" glyph-name="S" horiz-adv-x="538" d="M240 -12Q178 -12 116 16T2 113L116 203Q142 168 178 146T252 124Q287 124 307 139T328 181Q328 203 308 216T254 251L198 286Q153 315 128 353T102 452Q102 496 121 534T172 600T247 645T341 662Q398
662 450 636T543 561L443 467Q418 492 393 508T335 524Q300 524 283 508T266 468Q266 448 286 435T346 396L406 359Q453 330 473 296T494 204Q494 159 476 120T425 52T345 5T240 -12Z" />
<glyph unicode="T" glyph-name="T" horiz-adv-x="540" d="M142 0L244 516H80L106 650H594L568 516H404L302 0H142Z" />
<glyph unicode="U" glyph-name="U" horiz-adv-x="654" d="M88 332L152 650H312L242 300Q239 280 237 262T234 226Q234 176 252 151T320 126Q363 126 389 162T432 282L506 650H662L588 286Q558 132 493 60T316 -12Q194 -12 134 44T74 222Q74 245 78 275T88 332Z" />
<glyph unicode="V" glyph-name="V" horiz-adv-x="576" d="M132 0L78 650H246L258 346Q260 295 261 244T262 140H266Q288 192 309 243T352 346L484 650H660L326 0H132Z" />
<glyph unicode="W" glyph-name="W" horiz-adv-x="808" d="M70 0L98 650H262L236 356Q231 305 226 253T212 148H216Q236 200 257 252T298 356L421 650H554V356Q552 306 550 254T544 148H548Q565 201 583 253T616 356L714 650H866L620 0H418L426 278Q426 293 427
311T429 350T433 390T437 429H433Q420 393 405 355T376 278L268 0H70Z" />
<glyph unicode="X" glyph-name="X" horiz-adv-x="576" d="M-36 0L202 334L104 650H282L306 536Q311 513 316 487T328 430H332Q349 461 364 487T392 536L456 650H626L400 328L506 0H328L300 126Q294 152 288 177T276 232H272Q255 203 240 178T210 126L134 0H-36Z" />
<glyph unicode="Y" glyph-name="Y" horiz-adv-x="528" d="M137 0L182 228L79 650H245L266 506Q272 468 277 435T288 362H292Q312 401 329 435T368 508L446 650H618L342 228L296 0H137Z" />
<glyph unicode="Z" glyph-name="Z" horiz-adv-x="530" d="M-6 0L14 96L344 516H104L130 650H562L542 554L216 134H480L452 0H-6Z" />
<glyph unicode="[" glyph-name="bracketleft" horiz-adv-x="344" d="M-8 -152L164 708H376L360 624H266L128 -68H222L204 -152H-8Z" />
<glyph unicode="\" glyph-name="backslash" horiz-adv-x="324" d="M144 -160L84 710H186L248 -160H144Z" />
<glyph unicode="]" glyph-name="bracketright" horiz-adv-x="346" d="M-22 -152L-4 -68H88L226 624H134L150 708H362L190 -152H-22Z" />
<glyph unicode="^" glyph-name="asciicircum" horiz-adv-x="516" d="M68 272L218 670H344L494 272H364L326 390L284 526H280L236 390L198 272H68Z" />
<glyph unicode="_" glyph-name="underscore" horiz-adv-x="480" d="M-52 -144L-34 -56H422L404 -144H-52Z" />
<glyph unicode="`" glyph-name="grave" horiz-adv-x="540" d="M366 569L204 742L340 844L464 645L366 569Z" />
<glyph unicode="a" glyph-name="a" horiz-adv-x="558" d="M168 -12Q102 -12 65 35T28 172Q28 243 50 305T109 413T194 485T294 512Q326 512 355 496T398 450H400L422 500H550L450 0H320V62H318Q285 27 245 8T168 -12ZM240 118Q260 118 284 130T328 184L360 344Q351
364 336 373T306 382Q284 382 264 368T229 329T204 269T194 192Q194 153 206 136T240 118Z" />
<glyph unicode="b" glyph-name="b" horiz-adv-x="560" d="M140 0H8L148 696H308L278 550L252 458H254Q286 484 320 498T390 512Q456 512 493 465T530 328Q530 257 508 195T449 87T364 15T264 -12Q232 -12 205 4T164 50H162L140 0ZM318 382Q298 382 275 371T234
326L200 156Q208 136 222 127T252 118Q274 118 294 132T329 171T354 231T364 308Q364 347 352 364T318 382Z" />
<glyph unicode="c" glyph-name="c" horiz-adv-x="446" d="M226 -12Q184 -12 148 2T84 42T42 107T26 196Q26 259 48 316T111 416T206 486T326 512Q374 512 409 493T462 450L374 356Q360 370 347 377T316 384Q289 384 266 370T226 330T200 270T190 198Q190 160 208
138T262 116Q285 116 300 124T330 144L396 46Q367 25 327 7T226 -12Z" />
<glyph unicode="d" glyph-name="d" horiz-adv-x="550" d="M392 456L402 550L430 696H590L450 0H320V62H318Q285 27 245 8T168 -12Q102 -12 65 35T28 172Q28 243 50 305T109 413T194 485T294 512Q326 512 351 497T390 456H392ZM240 118Q259 118 283 130T328 184L360
344Q351 364 336 373T306 382Q284 382 264 368T229 329T204 269T194 192Q194 153 206 136T240 118Z" />
<glyph unicode="e" glyph-name="e" horiz-adv-x="502" d="M26 204Q26 273 51 329T116 426T207 489T308 512Q354 512 385 497T436 456T465 396T474 322Q474 303 471 284T463 249T454 220T446 202H176Q178 152 207 130T280 108Q301 108 324 118T364 140L420 40Q390
19 343 4T234 -12Q188 -12 150 3T85 46T42 114T26 204ZM188 298H340Q342 304 343 312T344 330Q344 356 332 373T288 390Q259 390 232 368T188 298Z" />
<glyph unicode="f" glyph-name="f" horiz-adv-x="344" d="M46 376L70 494L136 500L138 514Q145 553 160 588T201 650T261 692T344 708Q405 708 458 680L408 568Q400 573 387 577T362 582Q349 582 339 580T321 572T308 553T298 520L294 500H376L352 376H268L194
0H34L110 376H46Z" />
<glyph unicode="g" glyph-name="g" horiz-adv-x="552" d="M172 -208Q130 -208 80 -191T-16 -138L52 -32Q81 -53 112 -67T176 -82Q220 -82 250 -61T294 6L320 88Q288 55 251 38T174 20Q111 20 70 62T28 194Q28 261 49 319T106 420T189 487T288 512Q320 512 348
496T390 450H392L414 500H544L448 20Q425 -96 354 -152T172 -208ZM238 150Q259 150 282 160T326 206L352 344Q343 364 329 373T300 382Q278 382 259 370T226 336T203 282T194 214Q194 181 206 166T238 150Z" />
<glyph unicode="h" glyph-name="h" horiz-adv-x="556" d="M8 0L148 696H308L274 534L250 446H254Q284 473 322 492T406 512Q468 512 496 480T524 382Q524 365 523 347T516 310L454 0H294L352 290Q355 304 357 314T360 334Q360 355 349 365T318 376Q297 376 277
363T230 320L168 0H8Z" />
<glyph unicode="i" glyph-name="i" horiz-adv-x="276" d="M8 0L108 500H268L168 0H8ZM214 564Q198 564 183 568T156 582T137 605T130 638Q130 656 137 672T158 701T188 720T226 728Q242 728 257 723T284 709T303 686T310 654Q310 615 283 590T214 564Z" />
<glyph unicode="j" glyph-name="j" horiz-adv-x="278" d="M-30 -188Q-57 -188 -82 -183T-134 -164L-86 -50Q-65 -62 -44 -62Q-20 -62 -9 -46T12 10L110 500H270L170 2Q162 -37 147 -71T108 -132T50 -173T-30 -188ZM216 564Q200 564 185 568T158 582T139 605T132
638Q132 656 139 672T160 701T190 720T228 728Q244 728 259 723T286 709T305 686T312 654Q312 615 285 590T216 564Z" />
<glyph unicode="k" glyph-name="k" horiz-adv-x="544" d="M8 0L148 696H308L232 320H236L400 500H576L370 278L488 0H328L260 186L192 118L168 0H8Z" />
<glyph unicode="l" glyph-name="l" horiz-adv-x="286" d="M148 -12Q86 -12 60 17T34 98Q34 113 35 129T42 166L148 696H308L200 160Q198 152 198 149T198 141Q198 127 204 122T218 116Q223 116 226 116T236 118L230 0Q216 -5 196 -8T148 -12Z" />
<glyph unicode="m" glyph-name="m" horiz-adv-x="838" d="M8 0L106 500H236V436H240Q275 466 315 489T400 512Q454 512 479 490T516 428Q555 464 596 488T682 512Q744 512 772 480T800 382Q800 348 792 310L730 0H570L628 290Q631 304 633 314T636 334Q636 355
625 365T594 376Q565 376 512 320L448 0H288L346 290Q349 304 351 314T354 334Q354 355 343 365T314 376Q283 376 230 320L168 0H8Z" />
<glyph unicode="n" glyph-name="n" horiz-adv-x="562" d="M8 0L106 500H236V436H240Q275 466 316 489T406 512Q468 512 496 480T524 382Q524 348 516 310L454 0H294L352 290Q355 304 357 314T360 334Q360 355 349 365T318 376Q297 376 277 363T230 320L168 0H8Z" />
<glyph unicode="o" glyph-name="o" horiz-adv-x="540" d="M226 -12Q181 -12 144 3T81 45T41 111T26 196Q26 269 51 327T116 427T207 490T310 512Q355 512 392 497T455 455T495 389T510 304Q510 231 485 173T420 73T329 10T226 -12ZM244 116Q266 116 285 130T318
168T340 227T348 302Q348 340 335 362T292 384Q270 384 251 370T218 332T196 273T188 198Q188 160 201 138T244 116Z" />
<glyph unicode="p" glyph-name="p" horiz-adv-x="560" d="M168 42L156 -52L132 -176H-28L108 500H238L242 446H244Q277 476 315 494T390 512Q456 512 493 465T530 328Q530 257 508 195T449 87T364 15T264 -12Q235 -12 210 2T170 42H168ZM318 382Q298 382 275 371T234
326L200 156Q208 136 222 127T252 118Q274 118 294 132T329 171T354 231T364 308Q364 347 352 364T318 382Z" />
<glyph unicode="q" glyph-name="q" horiz-adv-x="558" d="M280 -52L320 62H318Q285 27 245 8T168 -12Q102 -12 65 35T28 172Q28 243 50 305T109 413T194 485T294 512Q326 512 355 496T398 450H400L422 500H550L414 -176H254L280 -52ZM240 118Q259 118 283 130T328
184L360 344Q351 364 336 373T306 382Q284 382 264 368T229 329T204 269T194 192Q194 153 206 136T240 118Z" />
<glyph unicode="r" glyph-name="r" horiz-adv-x="400" d="M8 0L106 500H236L232 402H236Q265 450 305 481T388 512Q409 512 421 510T442 502L390 364Q379 370 365 371T338 372Q306 372 279 351T222 280L168 0H8Z" />
<glyph unicode="s" glyph-name="s" horiz-adv-x="432" d="M172 -12Q150 -12 125 -6T76 12T29 42T-10 86L82 162Q109 130 134 117T182 104Q205 104 221 113T238 138Q238 148 232 155T216 169T189 185T154 204Q136 214 119 228T88 259T66 298T58 344Q58 380 74 410T117
463T181 499T260 512Q314 512 356 489T430 432L344 350Q326 368 305 381T260 394Q236 394 222 384T208 358Q208 347 215 340T233 325T259 311T288 296Q306 286 324 274T356 244T379 206T388 156Q388 118 372 88T328 35T259 0T172 -12Z" />
<glyph unicode="t" glyph-name="t" horiz-adv-x="384" d="M210 -12Q170 -12 142 -2T95 27T69 71T60 128Q60 145 62 161T68 194L106 376H42L66 494L138 500L182 628H316L292 500H400L376 376H264L226 188Q224 179 224 172T224 156Q224 112 272 112Q288 112 308
122L336 10Q315 2 284 -5T210 -12Z" />
<glyph unicode="u" glyph-name="u" horiz-adv-x="552" d="M542 500L444 0H314V64H310Q278 34 237 11T150 -12Q88 -12 60 20T32 118Q32 152 40 190L102 500H262L204 210Q201 196 199 186T196 166Q196 145 207 135T238 124Q258 124 277 137T320 180L382 500H542Z" />
<glyph unicode="v" glyph-name="v" horiz-adv-x="518" d="M120 0L60 500H220L230 272Q232 234 232 196T232 118H236Q253 157 268 195T300 272L398 500H554L304 0H120Z" />
<glyph unicode="w" glyph-name="w" horiz-adv-x="764" d="M92 0L73 500H231L226 278Q224 241 221 204T216 128H220Q234 166 247 204T276 278L367 500H503L508 278Q509 241 508 204T506 128H510Q524 166 535 203T560 278L640 500H788L580 0H394V186Q396 221 396
256T398 332H394Q380 291 369 256T344 186L272 0H92Z" />
<glyph unicode="x" glyph-name="x" horiz-adv-x="514" d="M-38 0L168 268L84 500H246L271 423Q276 402 282 381T293 338H297Q308 359 320 380T344 423L382 500H552L360 232L450 0H286L260 76Q253 97 247 119T234 162H230Q218 141 205 120T179 76L133 0H-38Z" />
<glyph unicode="y" glyph-name="y" horiz-adv-x="518" d="M52 -188Q37 -188 14 -182T-24 -166L24 -52Q41 -62 62 -62Q85 -62 107 -47T143 -5L153 15L65 500H224L242 295Q245 263 246 222T248 144H252Q267 179 284 220T316 295L406 500H560L299 1Q271 -47 244 -83T187
-142T125 -176T52 -188Z" />
<glyph unicode="z" glyph-name="z" horiz-adv-x="456" d="M-10 0L8 90L248 376H84L108 500H472L454 408L214 124H404L380 0H-10Z" />
<glyph unicode="{" glyph-name="braceleft" horiz-adv-x="342" d="M144 -152Q88 -152 66 -129T44 -62Q44 -32 52 2T69 68T86 127T94 172Q94 195 80 212T24 232L44 324Q69 325 86 332T115 350T133 374T142 400Q146 423 148 441T152 478T156 516T164 562Q172 603
184 631T213 676T255 700T315 708H385L367 624H351Q323 624 311 610T291 556Q283 518 278 481T264 400Q252 340 227 313T160 276L159 272Q189 265 204 249T220 198Q220 173 213 142T198 78T183 16T176 -34Q176 -53 183 -60T214 -68H228L212 -152H144Z" />
<glyph unicode="|" glyph-name="bar" horiz-adv-x="264" d="M86 -250V750H184V-250H86Z" />
<glyph unicode="}" glyph-name="braceright" horiz-adv-x="346" d="M-32 -152L-14 -68H2Q30 -68 42 -54T62 0Q70 38 75 75T89 156Q101 216 126 243T193 280L194 284Q164 291 149 307T133 358Q133 383 140 414T155 478T170 540T177 590Q177 609 170 616T139 624H125L141
708H209Q265 708 287 685T309 618Q309 588 301 554T284 488T267 429T259 384Q259 361 273 344T329 324L309 232Q284 231 267 224T238 206T220 182T211 156Q206 133 204 115T201 78T197 40T189 -6Q181 -47 169 -75T140 -120T97 -144T38 -152H-32Z" />
<glyph unicode="~" glyph-name="asciitilde" horiz-adv-x="520" d="M346 240Q317 240 296 251T255 277T219 302T182 314Q143 314 116 260L36 314Q71 374 110 398T188 422Q216 422 238 411T279 385T315 360T352 348Q391 348 418 402L498 348Q463 288 424 264T346 240Z" />
<glyph unicode="&#xa0;" glyph-name="uni00A0" horiz-adv-x="200" />
<glyph unicode="&#xa1;" glyph-name="exclamdown" horiz-adv-x="350" d="M16 -170L48 -30L130 262H234L196 -30L176 -170H16ZM198 316Q162 316 140 340T118 400Q118 421 126 441T148 477T183 502T228 512Q264 512 286 489T308 428Q308 408 300 388T278 352T243
326T198 316Z" />
<glyph unicode="&#xa2;" glyph-name="cent" horiz-adv-x="520" d="M226 310Q226 245 263 216L309 449Q270 432 248 395T226 310ZM216 -20L234 73Q159 86 115 140T70 286Q70 350 92 401T152 491T237 552T336 584L354 678H440L421 584Q457 576 483 557T532 512L440
426Q416 448 396 455L346 200Q381 206 414 230L462 128Q428 106 393 92T320 73L302 -20H216Z" />
<glyph unicode="&#xa3;" glyph-name="sterling" horiz-adv-x="520" d="M-4 0L16 98Q72 121 107 163T150 262H56L76 370L145 376Q142 398 142 418Q142 471 161 515T214 590T292 639T388 656Q442 656 482 634T552 570L450 486Q433 507 418 517T380 528Q344 528 317
497T290 394Q290 389 290 385T291 376H432L410 262H294Q289 227 277 198T242 138L240 134H466L442 0H-4Z" />
<glyph unicode="&#xa4;" glyph-name="currency" horiz-adv-x="520" d="M74 86L6 166L69 220Q52 254 52 296Q52 341 67 378T109 445L64 500L148 572L199 509Q251 532 306 532Q334 532 359 527T405 511L476 572L544 492L480 437Q496 402 496 364Q496 319 481 282T439
215L486 158L402 86L349 150Q323 139 296 134T242 128Q186 128 146 148L74 86ZM260 240Q277 240 293 248T322 271T342 306T350 352Q350 385 334 402T288 420Q271 420 255 412T226 389T206 354T198 308Q198 276 214 258T260 240Z" />
<glyph unicode="&#xa5;" glyph-name="yen" horiz-adv-x="520" d="M130 0L159 145H14L29 219H174L184 272H39L54 347H166L87 635H250L266 508Q270 475 274 442T285 377H288Q306 410 324 443T360 508L426 635H585L391 347H503L488 272H343L332 219H477L462 145H317L288
0H130Z" />
<glyph unicode="&#xa6;" glyph-name="brokenbar" horiz-adv-x="264" d="M86 316V750H184V316H86ZM86 -250V202H184V-250H86Z" />
<glyph unicode="&#xa7;" glyph-name="section" horiz-adv-x="516" d="M182 330Q182 312 194 298T227 270T271 242T318 212Q334 222 343 236T352 274Q352 291 340 305T308 332T264 359T217 389Q202 380 192 366T182 330ZM196 -88Q146 -88 92 -65T-4 0L74 98Q98
74 133 52T204 30Q252 30 252 68Q252 83 237 96T199 123T149 155T100 194T62 244T46 312Q46 362 74 399T148 459Q132 488 132 520Q132 557 145 588T183 643T241 679T318 692Q366 692 412 671T496 610L416 522Q396 540 372 556T318 572Q300 572 288 563T276 536Q276
522 292 509T331 481T383 449T434 409T474 358T490 292Q490 237 463 199T387 134Q396 113 396 86Q396 46 382 14T341 -40T278 -75T196 -88Z" />
<glyph unicode="&#xa8;" glyph-name="dieresis" horiz-adv-x="540" d="M226 566Q198 566 179 583T160 632Q160 648 166 663T184 689T210 707T244 714Q272 714 291 697T310 648Q310 613 286 590T226 566ZM446 566Q418 566 399 583T380 632Q380 648 386 663T404
689T430 707T464 714Q492 714 511 697T530 648Q530 613 506 590T446 566Z" />
<glyph unicode="&#xa9;" glyph-name="copyright" horiz-adv-x="674" d="M298 -8Q239 -8 190 13T104 71T48 159T28 270Q28 351 56 421T134 544T254 626T406 656Q464 656 513 635T599 577T655 489T676 378Q676 297 648 227T570 104T450 22T298 -8ZM304 60Q367 60
421 84T516 151T580 250T604 372Q604 415 591 454T553 523T489 570T400 588Q337 588 282 564T187 497T123 398T100 276Q100 233 112 194T150 125T214 78T304 60ZM332 128Q260 128 216 170T172 284Q172 337 192 380T245 453T318 499T398 516Q433 516 460 499T502
464L436 400Q424 414 411 419T384 424Q367 424 350 415T318 389T295 349T286 298Q286 262 304 241T358 220Q376 220 389 225T422 244L466 176Q434 150 400 139T332 128Z" />
<glyph unicode="&#xaa;" glyph-name="ordfeminine" horiz-adv-x="369" d="M74 482Q74 529 89 570T128 642T185 690T252 708Q273 708 290 696T316 666H320L336 700H426L360 368H270V408H266Q245 385 219 373T168 360Q124 360 99 391T74 482ZM216 450Q230 450 245
458T274 492L292 594Q287 606 278 612T260 618Q246 618 234 609T211 584T194 546T188 496Q188 472 196 461T216 450Z" />
<glyph unicode="&#xab;" glyph-name="guillemotleft" horiz-adv-x="480" d="M144 54L40 200L60 312L212 448L260 396L130 246L206 94L144 54ZM344 54L240 200L260 312L412 448L460 396L330 246L406 94L344 54Z" />
<glyph unicode="&#xac;" glyph-name="logicalnot" horiz-adv-x="520" d="M382 92V274H48V386H496V92H382Z" />
<glyph unicode="&#xad;" glyph-name="uni00AD" horiz-adv-x="328" d="M32 198L56 310H296L272 198H32Z" />
<glyph unicode="&#xae;" glyph-name="registered" horiz-adv-x="458" d="M262 308Q226 308 194 321T137 359T99 416T84 488Q84 531 99 572T142 645T209 696T296 716Q331 716 363 703T419 665T458 608T474 536Q474 492 459 451T415 379T348 328T262 308ZM266 360Q300
360 328 374T376 411T407 466T418 532Q418 560 409 584T384 626T344 654T292 664Q258 664 230 650T182 613T151 558T140 492Q140 464 149 440T174 398T214 370T266 360ZM180 416L220 610H308Q338 610 357 595T376 552Q376 532 364 515T328 488L352 416H292L276
474H252L240 416H180ZM260 516H274Q292 516 301 525T310 546Q310 555 305 560T286 566H270L260 516Z" />
<glyph unicode="&#xaf;" glyph-name="overscore" horiz-adv-x="540" d="M188 590L208 690H502L482 590H188Z" />
<glyph unicode="&#xb0;" glyph-name="degree" horiz-adv-x="362" d="M224 392Q165 392 129 428T92 524Q92 558 105 587T140 639T191 673T252 686Q311 686 347 650T384 554Q384 520 371 491T336 439T284 405T224 392ZM230 468Q262 468 281 493T300 554Q300 577
287 593T246 610Q214 610 195 585T176 524Q176 501 189 485T230 468Z" />
<glyph unicode="&#xb1;" glyph-name="plusminus" horiz-adv-x="520" d="M212 164V310H48V422H214V568H330V422H496V310H328V164H212ZM48 0V112H496V0H48Z" />
<glyph unicode="&#xb2;" glyph-name="two.sups" horiz-adv-x="368" d="M58 368L70 430Q168 492 219 542T270 632Q270 649 260 659T228 670Q214 670 202 661T174 638L110 706Q146 738 177 754T250 770Q313 770 349 739T386 654Q386 603 351 558T262 466H362L342 368H58Z" />
<glyph unicode="&#xb3;" glyph-name="three.sups" horiz-adv-x="364" d="M214 356Q158 356 122 378T62 436L136 490Q163 448 203 448Q229 448 243 459T258 488Q258 509 244 520T180 532L194 601Q220 601 236 605T261 617T273 633T276 651Q276 664 267 672T240
680Q223 680 212 676T180 658L132 734Q168 755 199 762T267 770Q322 770 357 743T392 672Q392 634 375 609T316 566Q342 551 356 530T370 482Q370 452 358 429T324 389T275 365T214 356Z" />
<glyph unicode="&#xb4;" glyph-name="acute" horiz-adv-x="540" d="M316 578L247 668L438 840L533 718L316 578Z" />
<glyph unicode="&#xb5;" glyph-name="uni00B5" horiz-adv-x="554" d="M266 500L208 210Q205 196 203 186T200 166Q200 145 211 135T242 124Q262 124 281 137T324 179L386 500H544L448 0H318V64H314Q296 35 270 16T216 -4Q199 -4 186 -1T164 14L158 -38L131 -176H-28L106
500H266Z" />
<glyph unicode="&#xb6;" glyph-name="paragraph" horiz-adv-x="636" d="M320 -80L464 650H624L480 -80H320ZM282 190Q239 190 201 202T133 238T86 296T68 376Q68 449 92 501T158 586T254 634T368 650H410L318 190H282Z" />
<glyph unicode="&#xb7;" glyph-name="middot" horiz-adv-x="310" d="M154 228Q118 228 96 251T74 312Q74 332 82 352T104 388T139 414T184 424Q220 424 242 400T264 340Q264 319 256 299T234 263T199 238T154 228Z" />
<glyph unicode="&#xb8;" glyph-name="cedilla" horiz-adv-x="540" d="M70 -244V-178Q127 -175 150 -166T178 -136Q180 -122 167 -112T108 -96L176 4H274L234 -60Q272 -69 288 -86T300 -136Q289 -190 230 -215T70 -244Z" />
<glyph unicode="&#xb9;" glyph-name="one.sups" horiz-adv-x="384" d="M182 368L238 642H152L166 714Q187 717 203 721T232 730T259 742T286 758H376L300 368H182Z" />
<glyph unicode="&#xba;" glyph-name="ordmasculine" horiz-adv-x="362" d="M186 360Q157 360 133 369T90 396T61 440T50 499Q50 547 66 585T109 651T170 693T240 708Q268 708 293 699T336 672T365 628T376 569Q376 521 360 483T317 417T256 375T186 360ZM196 448Q228
448 246 482T264 568Q264 592 256 606T230 620Q198 620 180 586T162 500Q162 476 170 462T196 448Z" />
<glyph unicode="&#xbb;" glyph-name="guillemotright" horiz-adv-x="480" d="M76 54L28 106L158 256L82 408L144 448L248 302L228 190L76 54ZM276 54L228 106L358 256L282 408L344 448L448 302L428 190L276 54Z" />
<glyph unicode="&#xbc;" glyph-name="onequarter" horiz-adv-x="788" d="M130 270L186 544H100L114 616Q135 619 151 623T180 632T207 644T234 660H324L248 270H130ZM124 -12L594 672H684L214 -12H124ZM578 0L595 82H408L420 142L608 390H754L709 158H766L750
82H694L678 0H578ZM526 158H610L618 196L646 320H642L584 234L526 158Z" />
<glyph unicode="&#xbd;" glyph-name="onehalf" horiz-adv-x="828" d="M126 270L182 544H96L110 616Q131 619 147 623T176 632T203 644T230 660H320L244 270H126ZM114 -12L584 672H674L204 -12H114ZM452 0L464 62Q562 124 613 174T664 264Q664 281 654 291T622
302Q608 302 596 293T568 270L504 338Q540 370 571 386T644 402Q707 402 743 371T780 286Q780 235 745 190T656 98H756L736 0H452Z" />
<glyph unicode="&#xbe;" glyph-name="threequarters" horiz-adv-x="798" d="M188 258Q132 258 96 280T36 338L110 392Q137 350 177 350Q203 350 217 361T232 390Q232 411 218 422T154 434L168 503Q194 503 210 507T235 519T247 535T250 553Q250 566 241 574T214
582Q197 582 186 578T154 560L106 636Q142 657 173 664T241 672Q296 672 331 645T366 574Q366 536 349 511T290 468Q316 453 330 432T344 384Q344 354 332 331T298 291T249 267T188 258ZM144 -12L614 672H704L234 -12H144ZM588 0L605 82H418L430 142L618 390H764L719
158H776L760 82H704L688 0H588ZM536 158H620L628 196L656 320H652L594 234L536 158Z" />
<glyph unicode="&#xbf;" glyph-name="questiondown" horiz-adv-x="458" d="M192 -182Q149 -182 114 -172T54 -141T14 -92T0 -26Q0 12 12 40T44 90T87 130T131 168T168 211T190 268L326 256Q321 217 307 189T274 139T234 100T196 68T168 36T156 -2Q156 -26 171
-40T212 -54Q244 -54 278 -20L358 -110Q283 -182 192 -182ZM274 316Q238 316 216 340T194 400Q194 421 202 441T224 477T259 502T304 512Q340 512 362 489T384 428Q384 408 376 388T354 352T319 326T274 316Z" />
<glyph unicode="&#xc0;" glyph-name="Agrave" horiz-adv-x="562" d="M266 344L232 268H352L350 344Q348 391 347 435T346 530H342Q322 482 305 437T266 344ZM-66 0L274 650H466L528 0H360L356 148H177L110 0H-66ZM402 670L227 806L336 907L492 748L402 670Z" />
<glyph unicode="&#xc1;" glyph-name="Aacute" horiz-adv-x="562" d="M266 344L232 268H352L350 344Q348 391 347 435T346 530H342Q322 482 305 437T266 344ZM-66 0L274 650H466L528 0H360L356 148H177L110 0H-66ZM336 680L275 772L482 899L552 782L336 680Z" />
<glyph unicode="&#xc2;" glyph-name="Acircumflex" horiz-adv-x="562" d="M266 344L232 268H352L350 344Q348 391 347 435T346 530H342Q322 482 305 437T266 344ZM-66 0L274 650H466L528 0H360L356 148H177L110 0H-66ZM260 680L194 730L298 834H486L550 724L472
680L388 760H384L260 680Z" />
<glyph unicode="&#xc3;" glyph-name="Atilde" horiz-adv-x="562" d="M266 344L232 268H352L350 344Q348 391 347 435T346 530H342Q322 482 305 437T266 344ZM-66 0L274 650H466L528 0H360L356 148H177L110 0H-66ZM432 686Q406 686 387 694T354 712T328 730T306
738Q294 738 284 730T266 696L158 704Q178 787 221 821T320 856Q346 856 365 848T398 830T424 812T446 804Q458 804 468 812T486 846L594 838Q574 755 531 721T432 686Z" />
<glyph unicode="&#xc4;" glyph-name="Adieresis" horiz-adv-x="562" d="M266 344L232 268H352L350 344Q348 391 347 435T346 530H342Q322 482 305 437T266 344ZM-66 0L274 650H466L528 0H360L356 148H177L110 0H-66ZM260 696Q233 696 215 713T196 760Q196 775
202 790T219 817T245 836T278 844Q304 844 323 827T342 780Q342 765 336 750T319 723T293 704T260 696ZM480 696Q453 696 435 713T416 760Q416 775 422 790T439 817T465 836T498 844Q524 844 543 827T562 780Q562 765 556 750T539 723T513 704T480 696Z" />
<glyph unicode="&#xc5;" glyph-name="Aring" horiz-adv-x="562" d="M266 344L232 268H352L350 344Q348 391 347 435T346 530H342Q322 482 305 437T266 344ZM-66 0L274 650H466L528 0H360L356 148H177L110 0H-66ZM376 696Q353 696 333 701T296 716T271 744T262
784Q262 807 272 828T300 864T341 889T392 898Q414 898 434 893T471 877T496 849T506 810Q506 786 496 765T468 729T427 705T376 696ZM378 756Q395 756 408 770T422 804Q422 818 414 828T390 838Q371 838 359 823T346 790Q346 776 354 766T378 756Z" />
<glyph unicode="&#xc6;" glyph-name="AE" horiz-adv-x="852" d="M350 360L295 264H403L457 536H454Q427 489 402 447T350 360ZM-36 0L372 650H868L842 516H612L590 402H784L758 268H564L536 134H774L748 0H350L378 140H224L144 0H-36Z" />
<glyph unicode="&#xc7;" glyph-name="Ccedilla" horiz-adv-x="574" d="M310 -12Q253 -12 206 6T126 60T75 146T56 264Q56 351 83 424T159 550T270 632T406 662Q463 662 509 635T584 556L476 472Q441 524 398 524Q363 524 331 505T274 452T235 372T220 274Q220
203 249 165T344 126Q370 126 395 139T444 172L510 70Q496 57 476 43T431 16T375 -4T310 -12ZM144 -244V-178Q201 -175 224 -166T252 -136Q254 -122 241 -112T182 -96L250 4H348L308 -60Q346 -69 362 -86T374 -136Q363 -190 304 -215T144 -244Z" />
<glyph unicode="&#xc8;" glyph-name="Egrave" horiz-adv-x="536" d="M26 0L156 650H552L526 516H288L266 402H468L442 268H240L212 134H458L432 0H26ZM402 670L227 806L336 907L492 748L402 670Z" />
<glyph unicode="&#xc9;" glyph-name="Eacute" horiz-adv-x="536" d="M26 0L156 650H552L526 516H288L266 402H468L442 268H240L212 134H458L432 0H26ZM336 680L275 772L482 899L552 782L336 680Z" />
<glyph unicode="&#xca;" glyph-name="Ecircumflex" horiz-adv-x="536" d="M26 0L156 650H552L526 516H288L266 402H468L442 268H240L212 134H458L432 0H26ZM260 680L194 730L298 834H486L550 724L472 680L388 760H384L260 680Z" />
<glyph unicode="&#xcb;" glyph-name="Edieresis" horiz-adv-x="536" d="M26 0L156 650H552L526 516H288L266 402H468L442 268H240L212 134H458L432 0H26ZM260 696Q233 696 215 713T196 760Q196 775 202 790T219 817T245 836T278 844Q304 844 323 827T342 780Q342
765 336 750T319 723T293 704T260 696ZM480 696Q453 696 435 713T416 760Q416 775 422 790T439 817T465 836T498 844Q524 844 543 827T562 780Q562 765 556 750T539 723T513 704T480 696Z" />
<glyph unicode="&#xcc;" glyph-name="Igrave" horiz-adv-x="310" d="M26 0L156 650H316L186 0H26ZM270 670L95 806L204 907L360 748L270 670Z" />
<glyph unicode="&#xcd;" glyph-name="Iacute" horiz-adv-x="310" d="M26 0L156 650H316L186 0H26ZM204 680L143 772L350 899L420 782L204 680Z" />
<glyph unicode="&#xce;" glyph-name="Icircumflex" horiz-adv-x="310" d="M26 0L156 650H316L186 0H26ZM128 680L62 730L166 834H354L418 724L340 680L256 760H252L128 680Z" />
<glyph unicode="&#xcf;" glyph-name="Idieresis" horiz-adv-x="310" d="M26 0L156 650H316L186 0H26ZM128 696Q101 696 83 713T64 760Q64 775 70 790T87 817T113 836T146 844Q172 844 191 827T210 780Q210 765 204 750T187 723T161 704T128 696ZM348 696Q321 696
303 713T284 760Q284 775 290 790T307 817T333 836T366 844Q392 844 411 827T430 780Q430 765 424 750T407 723T381 704T348 696Z" />
<glyph unicode="&#xd0;" glyph-name="Eth" horiz-adv-x="644" d="M34 300L48 370L119 376L174 650H326Q394 650 448 635T540 588T598 508T618 394Q618 295 591 221T515 98T400 25T258 0H44L104 300H34ZM230 128H254Q294 128 330 141T394 185T438 264T454 384Q454
422 444 448T417 491T375 515T322 522H308L279 376H394L378 300H264L230 128Z" />
<glyph unicode="&#xd1;" glyph-name="Ntilde" horiz-adv-x="652" d="M26 0L156 650H310L400 342L432 196H436Q438 222 440 253T445 316T452 380T462 442L504 650H656L526 0H372L282 308L252 454H248Q243 398 238 334T220 210L178 0H26ZM484 686Q458 686 439 694T406
712T380 730T358 738Q346 738 336 730T318 696L210 704Q230 787 273 821T372 856Q398 856 417 848T450 830T476 812T498 804Q510 804 520 812T538 846L646 838Q626 755 583 721T484 686Z" />
<glyph unicode="&#xd2;" glyph-name="Ograve" horiz-adv-x="670" d="M308 -12Q252 -12 206 6T126 60T75 146T56 264Q56 355 84 428T159 554T266 634T392 662Q448 662 494 644T574 590T625 504T644 386Q644 295 616 222T541 96T433 16T308 -12ZM316 126Q344 126
373 144T426 195T465 274T480 376Q480 447 455 485T384 524Q356 524 327 506T274 455T235 376T220 274Q220 203 245 165T316 126ZM456 670L281 806L390 907L546 748L456 670Z" />
<glyph unicode="&#xd3;" glyph-name="Oacute" horiz-adv-x="670" d="M308 -12Q252 -12 206 6T126 60T75 146T56 264Q56 355 84 428T159 554T266 634T392 662Q448 662 494 644T574 590T625 504T644 386Q644 295 616 222T541 96T433 16T308 -12ZM316 126Q344 126
373 144T426 195T465 274T480 376Q480 447 455 485T384 524Q356 524 327 506T274 455T235 376T220 274Q220 203 245 165T316 126ZM390 680L329 772L536 899L606 782L390 680Z" />
<glyph unicode="&#xd4;" glyph-name="Ocircumflex" horiz-adv-x="670" d="M308 -12Q252 -12 206 6T126 60T75 146T56 264Q56 355 84 428T159 554T266 634T392 662Q448 662 494 644T574 590T625 504T644 386Q644 295 616 222T541 96T433 16T308 -12ZM316 126Q344
126 373 144T426 195T465 274T480 376Q480 447 455 485T384 524Q356 524 327 506T274 455T235 376T220 274Q220 203 245 165T316 126ZM314 680L248 730L352 834H540L604 724L526 680L442 760H438L314 680Z" />
<glyph unicode="&#xd5;" glyph-name="Otilde" horiz-adv-x="670" d="M308 -12Q252 -12 206 6T126 60T75 146T56 264Q56 355 84 428T159 554T266 634T392 662Q448 662 494 644T574 590T625 504T644 386Q644 295 616 222T541 96T433 16T308 -12ZM316 126Q344 126
373 144T426 195T465 274T480 376Q480 447 455 485T384 524Q356 524 327 506T274 455T235 376T220 274Q220 203 245 165T316 126ZM486 686Q460 686 441 694T408 712T382 730T360 738Q348 738 338 730T320 696L212 704Q232 787 275 821T374 856Q400 856 419 848T452
830T478 812T500 804Q512 804 522 812T540 846L648 838Q628 755 585 721T486 686Z" />
<glyph unicode="&#xd6;" glyph-name="Odieresis" horiz-adv-x="670" d="M308 -12Q252 -12 206 6T126 60T75 146T56 264Q56 355 84 428T159 554T266 634T392 662Q448 662 494 644T574 590T625 504T644 386Q644 295 616 222T541 96T433 16T308 -12ZM316 126Q344
126 373 144T426 195T465 274T480 376Q480 447 455 485T384 524Q356 524 327 506T274 455T235 376T220 274Q220 203 245 165T316 126ZM314 696Q287 696 269 713T250 760Q250 775 256 790T273 817T299 836T332 844Q358 844 377 827T396 780Q396 765 390 750T373
723T347 704T314 696ZM534 696Q507 696 489 713T470 760Q470 775 476 790T493 817T519 836T552 844Q578 844 597 827T616 780Q616 765 610 750T593 723T567 704T534 696Z" />
<glyph unicode="&#xd7;" glyph-name="multiply" horiz-adv-x="520" d="M140 114L62 192L194 330L62 468L140 546L272 408L404 546L482 468L350 330L482 192L404 114L272 252L140 114Z" />
<glyph unicode="&#xd8;" glyph-name="Oslash" horiz-adv-x="670" d="M308 -12Q209 -12 143 43L58 -44L-12 20L85 119Q56 180 56 264Q56 355 84 428T159 554T266 634T392 662Q494 662 560 604L656 702L726 638L617 526Q630 497 637 462T644 386Q644 295 616 222T541
96T433 16T308 -12ZM220 274V257L450 492Q426 524 384 524Q356 524 327 506T274 455T235 376T220 274ZM316 126Q344 126 373 144T426 195T465 274T480 376V387L253 155Q277 126 316 126Z" />
<glyph unicode="&#xd9;" glyph-name="Ugrave" horiz-adv-x="654" d="M88 332L152 650H312L242 300Q239 280 237 262T234 226Q234 176 252 151T320 126Q363 126 389 162T432 282L506 650H662L588 286Q558 132 493 60T316 -12Q194 -12 134 44T74 222Q74 245 78 275T88
332ZM450 670L275 806L384 907L540 748L450 670Z" />
<glyph unicode="&#xda;" glyph-name="Uacute" horiz-adv-x="654" d="M88 332L152 650H312L242 300Q239 280 237 262T234 226Q234 176 252 151T320 126Q363 126 389 162T432 282L506 650H662L588 286Q558 132 493 60T316 -12Q194 -12 134 44T74 222Q74 245 78 275T88
332ZM384 680L323 772L530 899L600 782L384 680Z" />
<glyph unicode="&#xdb;" glyph-name="Ucircumflex" horiz-adv-x="654" d="M88 332L152 650H312L242 300Q239 280 237 262T234 226Q234 176 252 151T320 126Q363 126 389 162T432 282L506 650H662L588 286Q558 132 493 60T316 -12Q194 -12 134 44T74 222Q74 245
78 275T88 332ZM308 680L242 730L346 834H534L598 724L520 680L436 760H432L308 680Z" />
<glyph unicode="&#xdc;" glyph-name="Udieresis" horiz-adv-x="654" d="M88 332L152 650H312L242 300Q239 280 237 262T234 226Q234 176 252 151T320 126Q363 126 389 162T432 282L506 650H662L588 286Q558 132 493 60T316 -12Q194 -12 134 44T74 222Q74 245 78
275T88 332ZM308 696Q281 696 263 713T244 760Q244 775 250 790T267 817T293 836T326 844Q352 844 371 827T390 780Q390 765 384 750T367 723T341 704T308 696ZM528 696Q501 696 483 713T464 760Q464 775 470 790T487 817T513 836T546 844Q572 844 591 827T610
780Q610 765 604 750T587 723T561 704T528 696Z" />
<glyph unicode="&#xdd;" glyph-name="Yacute" horiz-adv-x="528" d="M137 0L182 228L79 650H245L266 506Q272 468 277 435T288 362H292Q312 401 329 435T368 508L446 650H618L342 228L296 0H137ZM312 680L251 772L458 899L528 782L312 680Z" />
<glyph unicode="&#xde;" glyph-name="Thorn" horiz-adv-x="608" d="M26 0L156 660H316L296 560H374Q418 560 457 551T524 520T569 465T586 382Q586 311 561 262T493 181T395 136T278 122H208L184 0H26ZM234 248H296Q359 248 393 276T428 358Q428 397 406 415T342
434H270L234 248Z" />
<glyph unicode="&#xdf;" glyph-name="germandbls" horiz-adv-x="630" d="M388 -12Q349 -12 311 -3T238 30L302 136Q320 124 341 115T386 106Q409 106 421 119T434 154Q434 175 414 192T369 228T325 274T304 338Q304 370 321 392T358 435T395 476T412 528Q412 554
400 568T358 582Q339 582 324 573T296 549T276 513T262 468L168 0H8L108 498Q117 543 138 581T191 648T266 692T364 708Q401 708 437 699T502 671T548 623T566 552Q566 511 550 485T513 438T477 402T460 366Q460 347 479 330T521 292T563 242T582 170Q582 132 567
99T526 41T464 2T388 -12Z" />
<glyph unicode="&#xe0;" glyph-name="agrave" horiz-adv-x="558" d="M168 -12Q102 -12 65 35T28 172Q28 243 50 305T109 413T194 485T294 512Q326 512 355 496T398 450H400L422 500H550L450 0H320V62H318Q285 27 245 8T168 -12ZM240 118Q260 118 284 130T328 184L360
344Q351 364 336 373T306 382Q284 382 264 368T229 329T204 269T194 192Q194 153 206 136T240 118ZM366 569L204 742L340 844L464 645L366 569Z" />
<glyph unicode="&#xe1;" glyph-name="aacute" horiz-adv-x="558" d="M168 -12Q102 -12 65 35T28 172Q28 243 50 305T109 413T194 485T294 512Q326 512 355 496T398 450H400L422 500H550L450 0H320V62H318Q285 27 245 8T168 -12ZM240 118Q260 118 284 130T328 184L360
344Q351 364 336 373T306 382Q284 382 264 368T229 329T204 269T194 192Q194 153 206 136T240 118ZM316 578L247 668L438 840L533 718L316 578Z" />
<glyph unicode="&#xe2;" glyph-name="acircumflex" horiz-adv-x="558" d="M168 -12Q102 -12 65 35T28 172Q28 243 50 305T109 413T194 485T294 512Q326 512 355 496T398 450H400L422 500H550L450 0H320V62H318Q285 27 245 8T168 -12ZM240 118Q260 118 284 130T328
184L360 344Q351 364 336 373T306 382Q284 382 264 368T229 329T204 269T194 192Q194 153 206 136T240 118ZM204 558L150 622L278 746H454L538 618L468 558L358 646H354L204 558Z" />
<glyph unicode="&#xe3;" glyph-name="atilde" horiz-adv-x="558" d="M168 -12Q102 -12 65 35T28 172Q28 243 50 305T109 413T194 485T294 512Q326 512 355 496T398 450H400L422 500H550L450 0H320V62H318Q285 27 245 8T168 -12ZM240 118Q260 118 284 130T328 184L360
344Q351 364 336 373T306 382Q284 382 264 368T229 329T204 269T194 192Q194 153 206 136T240 118ZM408 572Q384 572 367 580T336 599T310 619T284 628Q272 628 262 619T246 582L142 588Q156 673 195 709T292 746Q316 746 333 737T364 718T390 699T416 690Q428
690 438 699T454 736L558 730Q544 645 505 609T408 572Z" />
<glyph unicode="&#xe4;" glyph-name="adieresis" horiz-adv-x="558" d="M168 -12Q102 -12 65 35T28 172Q28 243 50 305T109 413T194 485T294 512Q326 512 355 496T398 450H400L422 500H550L450 0H320V62H318Q285 27 245 8T168 -12ZM240 118Q260 118 284 130T328
184L360 344Q351 364 336 373T306 382Q284 382 264 368T229 329T204 269T194 192Q194 153 206 136T240 118ZM226 566Q198 566 179 583T160 632Q160 648 166 663T184 689T210 707T244 714Q272 714 291 697T310 648Q310 613 286 590T226 566ZM446 566Q418 566 399
583T380 632Q380 648 386 663T404 689T430 707T464 714Q492 714 511 697T530 648Q530 613 506 590T446 566Z" />
<glyph unicode="&#xe5;" glyph-name="aring" horiz-adv-x="558" d="M168 -12Q102 -12 65 35T28 172Q28 243 50 305T109 413T194 485T294 512Q326 512 355 496T398 450H400L422 500H550L450 0H320V62H318Q285 27 245 8T168 -12ZM240 118Q260 118 284 130T328 184L360
344Q351 364 336 373T306 382Q284 382 264 368T229 329T204 269T194 192Q194 153 206 136T240 118ZM338 572Q284 572 250 596T216 664Q216 689 227 710T259 746T308 771T370 780Q424 780 458 756T492 688Q492 663 481 642T449 606T400 581T338 572ZM348 632Q366
632 379 647T392 684Q392 698 385 709T360 720Q342 720 329 705T316 668Q316 653 323 643T348 632Z" />
<glyph unicode="&#xe6;" glyph-name="ae" horiz-adv-x="752" d="M18 114Q18 169 42 207T106 268T201 301T316 314V326Q316 359 301 373T256 388Q229 388 199 379T132 352L98 462Q145 485 195 498T296 512Q381 512 418 456Q450 483 486 497T558 512Q604 512 635
497T686 456T715 396T724 322Q724 303 721 284T713 249T704 220T696 202H436Q435 177 442 160T462 131T493 114T532 108Q552 108 574 118T614 140L670 40Q641 19 597 4T496 -12Q443 -12 401 10T337 63Q294 28 251 8T154 -12Q125 -12 100 -3T57 22T29 62T18 114ZM448
298H590Q592 309 593 315T594 330Q594 356 582 373T538 390Q512 390 488 368T448 298ZM296 218Q230 216 202 196T174 146Q174 129 186 120T220 110Q238 110 258 122T298 158Q296 172 295 186T296 218Z" />
<glyph unicode="&#xe7;" glyph-name="ccedilla" horiz-adv-x="446" d="M226 -12Q184 -12 148 2T84 42T42 107T26 196Q26 259 48 316T111 416T206 486T326 512Q374 512 409 493T462 450L374 356Q360 370 347 377T316 384Q289 384 266 370T226 330T200 270T190 198Q190
160 208 138T262 116Q285 116 300 124T330 144L396 46Q367 25 327 7T226 -12ZM60 -244V-178Q117 -175 140 -166T168 -136Q170 -122 157 -112T98 -96L166 4H264L224 -60Q262 -69 278 -86T290 -136Q279 -190 220 -215T60 -244Z" />
<glyph unicode="&#xe8;" glyph-name="egrave" horiz-adv-x="502" d="M26 204Q26 273 51 329T116 426T207 489T308 512Q354 512 385 497T436 456T465 396T474 322Q474 303 471 284T463 249T454 220T446 202H176Q178 152 207 130T280 108Q301 108 324 118T364 140L420
40Q390 19 343 4T234 -12Q188 -12 150 3T85 46T42 114T26 204ZM188 298H340Q342 304 343 312T344 330Q344 356 332 373T288 390Q259 390 232 368T188 298ZM358 569L196 742L332 844L456 645L358 569Z" />
<glyph unicode="&#xe9;" glyph-name="eacute" horiz-adv-x="502" d="M26 204Q26 273 51 329T116 426T207 489T308 512Q354 512 385 497T436 456T465 396T474 322Q474 303 471 284T463 249T454 220T446 202H176Q178 152 207 130T280 108Q301 108 324 118T364 140L420
40Q390 19 343 4T234 -12Q188 -12 150 3T85 46T42 114T26 204ZM188 298H340Q342 304 343 312T344 330Q344 356 332 373T288 390Q259 390 232 368T188 298ZM308 578L239 668L430 840L525 718L308 578Z" />
<glyph unicode="&#xea;" glyph-name="ecircumflex" horiz-adv-x="502" d="M26 204Q26 273 51 329T116 426T207 489T308 512Q354 512 385 497T436 456T465 396T474 322Q474 303 471 284T463 249T454 220T446 202H176Q178 152 207 130T280 108Q301 108 324 118T364
140L420 40Q390 19 343 4T234 -12Q188 -12 150 3T85 46T42 114T26 204ZM188 298H340Q342 304 343 312T344 330Q344 356 332 373T288 390Q259 390 232 368T188 298ZM196 558L142 622L270 746H446L530 618L460 558L350 646H346L196 558Z" />
<glyph unicode="&#xeb;" glyph-name="edieresis" horiz-adv-x="502" d="M26 204Q26 273 51 329T116 426T207 489T308 512Q354 512 385 497T436 456T465 396T474 322Q474 303 471 284T463 249T454 220T446 202H176Q178 152 207 130T280 108Q301 108 324 118T364
140L420 40Q390 19 343 4T234 -12Q188 -12 150 3T85 46T42 114T26 204ZM188 298H340Q342 304 343 312T344 330Q344 356 332 373T288 390Q259 390 232 368T188 298ZM218 566Q190 566 171 583T152 632Q152 648 158 663T176 689T202 707T236 714Q264 714 283 697T302
648Q302 613 278 590T218 566ZM438 566Q410 566 391 583T372 632Q372 648 378 663T396 689T422 707T456 714Q484 714 503 697T522 648Q522 613 498 590T438 566Z" />
<glyph unicode="&#xec;" glyph-name="igrave" horiz-adv-x="276" d="M8 0L108 500H268L168 0H8ZM230 569L68 742L204 844L328 645L230 569Z" />
<glyph unicode="&#xed;" glyph-name="iacute" horiz-adv-x="276" d="M8 0L108 500H268L168 0H8ZM180 578L111 668L302 840L397 718L180 578Z" />
<glyph unicode="&#xee;" glyph-name="icircumflex" horiz-adv-x="276" d="M8 0L108 500H268L168 0H8ZM68 558L14 622L142 746H318L402 618L332 558L222 646H218L68 558Z" />
<glyph unicode="&#xef;" glyph-name="idieresis" horiz-adv-x="276" d="M8 0L108 500H268L168 0H8ZM90 566Q62 566 43 583T24 632Q24 648 30 663T48 689T74 707T108 714Q136 714 155 697T174 648Q174 613 150 590T90 566ZM310 566Q282 566 263 583T244 632Q244
648 250 663T268 689T294 707T328 714Q356 714 375 697T394 648Q394 613 370 590T310 566Z" />
<glyph unicode="&#xf0;" glyph-name="eth" horiz-adv-x="542" d="M226 -12Q186 -12 151 1T88 40T46 102T30 186Q30 235 45 283T89 371T160 434T258 458Q287 458 311 447T353 412Q344 481 312 533L168 476L138 550L258 597Q242 611 224 624T184 652L256 744Q331
706 388 649L532 706L562 632L440 584Q471 536 487 481T504 360Q504 292 488 226T437 107T351 21T226 -12ZM240 116Q286 116 315 165T353 295Q342 313 323 325T280 338Q253 338 233 326T200 293T181 248T174 198Q174 163 190 140T240 116Z" />
<glyph unicode="&#xf1;" glyph-name="ntilde" horiz-adv-x="562" d="M8 0L106 500H236V436H240Q275 466 316 489T406 512Q468 512 496 480T524 382Q524 348 516 310L454 0H294L352 290Q355 304 357 314T360 334Q360 355 349 365T318 376Q297 376 277 363T230 320L168
0H8ZM440 572Q416 572 399 580T368 599T342 619T316 628Q304 628 294 619T278 582L174 588Q188 673 227 709T324 746Q348 746 365 737T396 718T422 699T448 690Q460 690 470 699T486 736L590 730Q576 645 537 609T440 572Z" />
<glyph unicode="&#xf2;" glyph-name="ograve" horiz-adv-x="540" d="M226 -12Q181 -12 144 3T81 45T41 111T26 196Q26 269 51 327T116 427T207 490T310 512Q355 512 392 497T455 455T495 389T510 304Q510 231 485 173T420 73T329 10T226 -12ZM244 116Q266 116
285 130T318 168T340 227T348 302Q348 340 335 362T292 384Q270 384 251 370T218 332T196 273T188 198Q188 160 201 138T244 116ZM366 569L204 742L340 844L464 645L366 569Z" />
<glyph unicode="&#xf3;" glyph-name="oacute" horiz-adv-x="540" d="M226 -12Q181 -12 144 3T81 45T41 111T26 196Q26 269 51 327T116 427T207 490T310 512Q355 512 392 497T455 455T495 389T510 304Q510 231 485 173T420 73T329 10T226 -12ZM244 116Q266 116
285 130T318 168T340 227T348 302Q348 340 335 362T292 384Q270 384 251 370T218 332T196 273T188 198Q188 160 201 138T244 116ZM316 578L247 668L438 840L533 718L316 578Z" />
<glyph unicode="&#xf4;" glyph-name="ocircumflex" horiz-adv-x="540" d="M226 -12Q181 -12 144 3T81 45T41 111T26 196Q26 269 51 327T116 427T207 490T310 512Q355 512 392 497T455 455T495 389T510 304Q510 231 485 173T420 73T329 10T226 -12ZM244 116Q266
116 285 130T318 168T340 227T348 302Q348 340 335 362T292 384Q270 384 251 370T218 332T196 273T188 198Q188 160 201 138T244 116ZM204 558L150 622L278 746H454L538 618L468 558L358 646H354L204 558Z" />
<glyph unicode="&#xf5;" glyph-name="otilde" horiz-adv-x="540" d="M226 -12Q181 -12 144 3T81 45T41 111T26 196Q26 269 51 327T116 427T207 490T310 512Q355 512 392 497T455 455T495 389T510 304Q510 231 485 173T420 73T329 10T226 -12ZM244 116Q266 116
285 130T318 168T340 227T348 302Q348 340 335 362T292 384Q270 384 251 370T218 332T196 273T188 198Q188 160 201 138T244 116ZM408 572Q384 572 367 580T336 599T310 619T284 628Q272 628 262 619T246 582L142 588Q156 673 195 709T292 746Q316 746 333 737T364
718T390 699T416 690Q428 690 438 699T454 736L558 730Q544 645 505 609T408 572Z" />
<glyph unicode="&#xf6;" glyph-name="odieresis" horiz-adv-x="540" d="M226 -12Q181 -12 144 3T81 45T41 111T26 196Q26 269 51 327T116 427T207 490T310 512Q355 512 392 497T455 455T495 389T510 304Q510 231 485 173T420 73T329 10T226 -12ZM244 116Q266 116
285 130T318 168T340 227T348 302Q348 340 335 362T292 384Q270 384 251 370T218 332T196 273T188 198Q188 160 201 138T244 116ZM226 566Q198 566 179 583T160 632Q160 648 166 663T184 689T210 707T244 714Q272 714 291 697T310 648Q310 613 286 590T226 566ZM446
566Q418 566 399 583T380 632Q380 648 386 663T404 689T430 707T464 714Q492 714 511 697T530 648Q530 613 506 590T446 566Z" />
<glyph unicode="&#xf7;" glyph-name="divide" horiz-adv-x="520" d="M48 274V386H496V274H48ZM272 68Q236 68 211 90T186 148Q186 183 211 206T272 230Q308 230 333 207T358 148Q358 112 333 90T272 68ZM272 430Q236 430 211 453T186 512Q186 547 211 569T272
592Q308 592 333 570T358 512Q358 476 333 453T272 430Z" />
<glyph unicode="&#xf8;" glyph-name="oslash" horiz-adv-x="540" d="M226 -12Q153 -12 101 28L48 -26L0 20L56 78Q42 102 34 131T26 196Q26 269 51 327T116 427T207 490T310 512Q385 512 438 470L490 524L540 480L481 420Q510 371 510 304Q510 230 485 172T420
73T329 10T226 -12ZM298 388Q266 388 243 370T205 324T183 264T176 201L339 369Q323 388 298 388ZM238 112Q271 112 294 130T332 175T353 234T360 295L198 128Q212 112 238 112Z" />
<glyph unicode="&#xf9;" glyph-name="ugrave" horiz-adv-x="552" d="M542 500L444 0H314V64H310Q278 34 237 11T150 -12Q88 -12 60 20T32 118Q32 152 40 190L102 500H262L204 210Q201 196 199 186T196 166Q196 145 207 135T238 124Q258 124 277 137T320 180L382
500H542ZM364 569L202 742L338 844L462 645L364 569Z" />
<glyph unicode="&#xfa;" glyph-name="uacute" horiz-adv-x="552" d="M542 500L444 0H314V64H310Q278 34 237 11T150 -12Q88 -12 60 20T32 118Q32 152 40 190L102 500H262L204 210Q201 196 199 186T196 166Q196 145 207 135T238 124Q258 124 277 137T320 180L382
500H542ZM314 578L245 668L436 840L531 718L314 578Z" />
<glyph unicode="&#xfb;" glyph-name="ucircumflex" horiz-adv-x="552" d="M542 500L444 0H314V64H310Q278 34 237 11T150 -12Q88 -12 60 20T32 118Q32 152 40 190L102 500H262L204 210Q201 196 199 186T196 166Q196 145 207 135T238 124Q258 124 277 137T320 180L382
500H542ZM202 558L148 622L276 746H452L536 618L466 558L356 646H352L202 558Z" />
<glyph unicode="&#xfc;" glyph-name="udieresis" horiz-adv-x="552" d="M542 500L444 0H314V64H310Q278 34 237 11T150 -12Q88 -12 60 20T32 118Q32 152 40 190L102 500H262L204 210Q201 196 199 186T196 166Q196 145 207 135T238 124Q258 124 277 137T320 180L382
500H542ZM224 566Q196 566 177 583T158 632Q158 648 164 663T182 689T208 707T242 714Q270 714 289 697T308 648Q308 613 284 590T224 566ZM444 566Q416 566 397 583T378 632Q378 648 384 663T402 689T428 707T462 714Q490 714 509 697T528 648Q528 613 504 590T444
566Z" />
<glyph unicode="&#xfd;" glyph-name="yacute" horiz-adv-x="518" d="M52 -188Q37 -188 14 -182T-24 -166L24 -52Q41 -62 62 -62Q85 -62 107 -47T143 -5L153 15L65 500H224L242 295Q245 263 246 222T248 144H252Q267 179 284 220T316 295L406 500H560L299 1Q271
-47 244 -83T187 -142T125 -176T52 -188ZM290 578L221 668L412 840L507 718L290 578Z" />
<glyph unicode="&#xfe;" glyph-name="thorn" horiz-adv-x="560" d="M-28 -176L148 696H308L278 550L252 458H254Q286 484 320 498T390 512Q456 512 493 465T530 328Q530 257 508 195T449 87T364 15T264 -12Q235 -12 210 2T170 42H168L156 -52L132 -176H-28ZM252
118Q274 118 294 132T329 171T354 231T364 308Q364 347 352 364T318 382Q298 382 275 371T234 326L200 156Q208 136 222 127T252 118Z" />
<glyph unicode="&#xff;" glyph-name="ydieresis" horiz-adv-x="518" d="M52 -188Q37 -188 14 -182T-24 -166L24 -52Q41 -62 62 -62Q85 -62 107 -47T143 -5L153 15L65 500H224L242 295Q245 263 246 222T248 144H252Q267 179 284 220T316 295L406 500H560L299 1Q271
-47 244 -83T187 -142T125 -176T52 -188ZM200 566Q172 566 153 583T134 632Q134 648 140 663T158 689T184 707T218 714Q246 714 265 697T284 648Q284 613 260 590T200 566ZM420 566Q392 566 373 583T354 632Q354 648 360 663T378 689T404 707T438 714Q466 714 485
697T504 648Q504 613 480 590T420 566Z" />
<glyph unicode="&#x2013;" glyph-name="endash" horiz-adv-x="464" d="M34 202L54 304H430L410 202H34Z" />
<glyph unicode="&#x2014;" glyph-name="emdash" horiz-adv-x="772" d="M34 202L54 304H738L718 202H34Z" />
<glyph unicode="&#x2018;" glyph-name="quoteleft" horiz-adv-x="310" d="M174 324Q136 324 114 352T92 432Q92 481 107 520T148 590T208 640T280 672L304 604Q274 594 252 578T214 545T190 512T182 486H188Q223 486 245 468T268 416Q268 380 243 352T174 324Z" />
<glyph unicode="&#x2019;" glyph-name="quoteright" horiz-adv-x="310" d="M130 348L106 416Q136 426 158 442T196 475T220 507T228 534H222Q187 534 165 552T142 604Q142 640 167 668T236 696Q274 696 296 668T318 588Q318 539 303 500T262 430T202 379T130 348Z" />
<glyph unicode="&#x201a;" glyph-name="quotesinglbase" horiz-adv-x="310" d="M31 -161L7 -93Q37 -83 59 -67T97 -34T121 -2T129 25H123Q88 25 66 43T43 95Q43 131 68 159T137 187Q175 187 197 159T219 79Q219 30 204 -9T163 -79T103 -130T31 -161Z" />
<glyph unicode="&#x201c;" glyph-name="quotedblleft" horiz-adv-x="550" d="M174 324Q136 324 114 352T92 432Q92 481 107 520T148 590T208 640T280 672L304 604Q274 594 252 578T214 545T190 512T182 486H188Q223 486 245 468T268 416Q268 380 243 352T174 324ZM414
324Q376 324 354 352T332 432Q332 481 347 520T388 590T448 640T520 672L544 604Q514 594 492 578T454 545T430 512T422 486H428Q463 486 485 468T508 416Q508 380 483 352T414 324Z" />
<glyph unicode="&#x201d;" glyph-name="quotedblright" horiz-adv-x="550" d="M130 348L106 416Q136 426 158 442T196 475T220 507T228 534H222Q187 534 165 552T142 604Q142 640 167 668T236 696Q274 696 296 668T318 588Q318 539 303 500T262 430T202 379T130
348ZM370 348L346 416Q376 426 398 442T436 475T460 507T468 534H462Q427 534 405 552T382 604Q382 640 407 668T476 696Q514 696 536 668T558 588Q558 539 543 500T502 430T442 379T370 348Z" />
<glyph unicode="&#x201e;" glyph-name="quotedblbase" horiz-adv-x="550" d="M31 -161L7 -93Q37 -83 59 -67T97 -34T121 -2T129 25H123Q88 25 66 43T43 95Q43 131 68 159T137 187Q175 187 197 159T219 79Q219 30 204 -9T163 -79T103 -130T31 -161ZM270 -161L246
-93Q276 -83 298 -67T336 -34T360 -2T368 25H362Q327 25 305 43T282 95Q282 131 307 159T376 187Q414 187 436 159T458 79Q458 30 443 -9T402 -79T342 -130T270 -161Z" />
<glyph unicode="&#x2022;" glyph-name="bullet" horiz-adv-x="344" d="M160 120Q107 120 73 155T38 246Q38 274 48 302T78 353T124 390T184 404Q237 404 271 369T306 278Q306 249 296 221T266 171T220 134T160 120Z" />
<glyph unicode="&#x2039;" glyph-name="guilsinglleft" horiz-adv-x="280" d="M144 54L40 200L60 312L212 448L260 396L130 246L206 94L144 54Z" />
<glyph unicode="&#x203a;" glyph-name="guilsinglright" horiz-adv-x="280" d="M76 54L28 106L158 256L82 408L144 448L248 302L228 190L76 54Z" />
</font>
</defs>
</svg>
