<?xml version="1.0" standalone="no"?>
<!DOCTYPE svg PUBLIC "-//W3C//DTD SVG 1.1//EN" "http://www.w3.org/Graphics/SVG/1.1/DTD/svg11.dtd">
<svg xmlns="http://www.w3.org/2000/svg">
<defs >
<font id="SourceSansPro" horiz-adv-x="448" ><font-face
    font-family="Source Sans Pro ExtraLight"
    units-per-em="1000"
    panose-1="2 11 3 3 3 4 3 9 2 4"
    ascent="984"
    descent="-273"
    alphabetic="0" />
<glyph unicode=" " glyph-name="space" horiz-adv-x="188" />
<glyph unicode="!" glyph-name="exclam" horiz-adv-x="242" d="M92 172L176 608L188 672H216L204 608L116 172H92ZM70 -12Q56 -12 49 -3T42 18Q42 35 54 49T84 64Q98 64 104 55T110 32Q110 15 99 2T70 -12Z" />
<glyph unicode="&quot;" glyph-name="quotedbl" horiz-adv-x="324" d="M134 478L158 608L170 672H198L186 608L156 478H134ZM256 478L280 608L292 672H320L308 608L278 478H256Z" />
<glyph unicode="#" glyph-name="numbersign" horiz-adv-x="458" d="M42 0L110 218H28L36 246H118L172 424H88L96 452H182L244 650H272L210 452H356L418 650H446L384 452H466L458 424H376L322 246H406L398 218H312L244 0H216L284 218H138L70 0H42ZM146 246H294L348
424H200L146 246Z" />
<glyph unicode="$" glyph-name="dollar" horiz-adv-x="456" d="M148 -110L168 -10Q120 -2 84 24T25 78L46 98Q57 82 72 67T106 40T147 21T194 14Q227 14 255 25T305 56T338 103T350 164Q350 207 334 237T293 291T239 335T186 377T145 426T128 492Q128 526 140
555T175 606T228 640T295 652L315 750H343L322 649Q358 642 389 619T438 568L416 550Q395 582 364 604T294 626Q265 626 240 617T196 591T167 550T156 498Q156 462 172 437T213 390T267 348T320 304T361 247T378 170Q378 132 365 99T327 42T270 3T195 -12L176 -110H148Z"
/>
<glyph unicode="%" glyph-name="percent" horiz-adv-x="760" d="M178 258Q149 258 129 269T95 301T75 347T68 404Q68 446 79 493T111 580T165 646T242 672Q270 672 291 661T325 629T345 583T352 526Q352 484 341 437T309 350T254 284T178 258ZM180 282Q216 282
243 306T288 366T315 443T324 520Q324 547 320 570T305 610T279 638T240 648Q204 648 177 624T132 564T105 487T96 410Q96 383 100 360T115 320T141 292T180 282ZM130 -12L622 672H652L160 -12H130ZM544 -12Q515 -12 495 -1T461 31T441 77T434 134Q434 176 445
223T477 310T531 376T608 402Q636 402 657 391T691 359T711 313T718 256Q718 214 707 167T675 80T620 14T544 -12ZM546 12Q582 12 609 36T654 96T681 173T690 250Q690 277 686 300T671 340T645 368T606 378Q570 378 543 354T498 294T471 217T462 140Q462 113 466
90T481 50T507 22T546 12Z" />
<glyph unicode="&amp;" glyph-name="ampersand" horiz-adv-x="542" d="M163 -12Q131 -12 105 -2T58 27T27 73T16 134Q16 175 31 208T70 268T127 319T193 365Q176 427 176 482Q176 525 189 560T223 620T271 658T328 672Q373 672 393 646T414 584Q414 545 398 514T354
455T293 404T224 357Q244 289 279 225T357 112Q404 160 439 217T506 341H534Q501 271 462 208T374 94Q401 65 426 44T478 12L464 -12Q438 -1 410 20T353 73Q311 34 264 11T163 -12ZM204 486Q204 436 218 382Q250 403 280 424T334 468T372 518T386 577Q386 603 372
624T326 646Q299 646 277 634T239 601T213 550T204 486ZM170 14Q214 14 256 36T336 92Q294 142 258 207T200 341Q170 320 142 299T93 253T59 201T46 140Q46 111 55 88T81 49T120 23T170 14Z" />
<glyph unicode="&apos;" glyph-name="quotesingle" horiz-adv-x="202" d="M134 478L158 608L170 672H198L186 608L156 478H134Z" />
<glyph unicode="(" glyph-name="parenleft" horiz-adv-x="260" d="M128 -174Q102 -109 87 -29T72 134Q72 222 88 300T134 450T207 592T304 730L322 716Q215 586 158 441T100 128Q100 90 103 51T112 -27T127 -102T148 -168L128 -174Z" />
<glyph unicode=")" glyph-name="parenright" horiz-adv-x="262" d="M-36 -174L-54 -160Q53 -30 110 115T168 428Q168 465 165 505T156 583T141 658T120 724L140 730Q166 665 181 585T196 422Q196 334 180 256T134 106T61 -36T-36 -174Z" />
<glyph unicode="*" glyph-name="asterisk" horiz-adv-x="374" d="M178 488L162 502L226 582L144 626L152 646L244 614L264 712L286 710L278 612L372 626L376 604L280 578L318 488L298 476L252 560L178 488Z" />
<glyph unicode="+" glyph-name="plus" horiz-adv-x="456" d="M228 110V318H48V344H228V546H256V344H436V318H256V110H228Z" />
<glyph unicode="," glyph-name="comma" horiz-adv-x="202" d="M-26 -146L-34 -122Q5 -104 31 -74T62 -8H56Q42 -8 34 0T26 22Q26 37 37 50T66 64Q82 64 90 52T98 22Q98 -6 89 -31T63 -79T23 -118T-26 -146Z" />
<glyph unicode="-" glyph-name="hyphen" horiz-adv-x="282" d="M36 236L42 264H248L242 236H36Z" />
<glyph unicode="." glyph-name="period" horiz-adv-x="202" d="M50 -12Q36 -12 29 -3T22 18Q22 35 34 49T64 64Q78 64 84 55T90 32Q90 15 79 2T50 -12Z" />
<glyph unicode="/" glyph-name="slash" horiz-adv-x="350" d="M-74 -160L410 710H438L-46 -160H-74Z" />
<glyph unicode="0" glyph-name="zero" horiz-adv-x="456" d="M186 -12Q148 -12 122 6T79 53T54 119T46 196Q46 247 54 300T78 405T116 500T166 579T226 632T296 652Q333 652 359 634T403 585T428 518T436 442Q436 391 428 338T404 234T366 139T316 61T255 8T186
-12ZM186 14Q234 14 274 55T345 159T391 296T408 436Q408 473 402 507T381 567T346 610T294 626Q262 626 234 607T181 555T136 479T103 389T82 294T74 202Q74 166 80 132T99 72T134 30T186 14Z" />
<glyph unicode="1" glyph-name="one" horiz-adv-x="456" d="M32 0L38 26H182L294 582H182L186 602Q222 607 254 616T310 640H334L210 26H350L346 0H32Z" />
<glyph unicode="2" glyph-name="two" horiz-adv-x="456" d="M-8 0L-6 20Q104 115 181 183T308 305T379 404T402 500Q402 525 395 548T372 588T332 616T276 626Q240 626 201 608T124 552L106 574Q148 610 189 631T278 652Q315 652 343 641T391 610T420 564T430
506Q430 450 408 401T338 297T217 178T42 26H366L362 0H-8Z" />
<glyph unicode="3" glyph-name="three" horiz-adv-x="456" d="M174 -12Q139 -12 111 -2T61 24T23 58T-4 94L18 110Q29 93 44 76T78 46T122 23T178 14Q219 14 254 27T314 62T354 116T368 182Q368 211 356 236T319 281T254 311T160 322L166 348Q233 348 278 363T352
402T393 453T406 506Q406 559 378 592T286 626Q269 626 250 622T211 610T173 591T142 566L124 588Q159 617 201 634T288 652Q363 652 398 614T434 512Q434 450 392 401T276 334V330Q329 315 362 279T396 188Q396 144 380 107T334 44T264 3T174 -12Z" />
<glyph unicode="4" glyph-name="four" horiz-adv-x="456" d="M276 0H248L287 194H8L10 210L384 640H404L320 220H412L406 194H315L276 0ZM54 220H292L342 470Q347 493 354 523T370 586H366Q345 559 325 535T286 490L54 220Z" />
<glyph unicode="5" glyph-name="five" horiz-adv-x="456" d="M170 -12Q135 -12 107 -2T58 23T23 56T-2 92L20 108Q30 92 42 76T73 46T116 23T176 14Q214 14 249 29T311 73T354 140T370 226Q370 301 332 337T232 374Q196 374 170 365T114 338L96 352L176 640H442L436
614H196L130 374Q150 385 175 392T232 400Q304 400 351 358T398 232Q398 176 380 131T330 55T257 6T170 -12Z" />
<glyph unicode="6" glyph-name="six" horiz-adv-x="456" d="M212 -12Q174 -12 145 3T95 47T63 113T52 196Q52 293 73 376T133 521T222 617T334 652Q379 652 408 632T458 576L434 560Q416 593 392 609T332 626Q287 626 247 601T175 531T119 427T86 296Q124 338
168 358T250 378Q287 378 315 366T363 331T393 279T404 212Q404 165 389 124T348 53T287 6T212 -12ZM214 14Q245 14 274 29T326 70T362 130T376 202Q376 270 344 310T248 350Q234 350 215 346T173 331T127 302T82 255Q81 242 81 229T80 202Q80 161 89 127T115 68T157
28T214 14Z" />
<glyph unicode="7" glyph-name="seven" horiz-adv-x="456" d="M136 0Q157 95 183 177T245 334T331 477T450 614H114L120 640H492L488 620Q412 547 360 476T271 329T211 173T168 0H136Z" />
<glyph unicode="8" glyph-name="eight" horiz-adv-x="456" d="M212 -12Q177 -12 145 -2T89 30T49 82T34 154Q34 193 47 224T83 281T133 325T192 358V362Q163 389 149 417T134 486Q134 525 148 556T185 608T239 640T304 652Q333 652 359 643T406 615T438 570T450
506Q450 472 440 445T413 395T372 353T320 318V314Q332 306 348 293T378 261T402 221T412 172Q412 129 396 95T353 37T289 1T212 -12ZM296 330Q320 343 342 361T383 400T411 448T422 504Q422 534 412 557T386 595T347 618T302 626Q275 626 250 617T205 589T174
546T162 488Q162 457 171 434T198 393T240 359T296 330ZM212 14Q244 14 275 24T330 53T369 101T384 166Q384 200 369 226T330 272T275 310T212 344Q179 327 152 308T104 267T73 217T62 156Q62 121 74 95T108 50T156 23T212 14Z" />
<glyph unicode="9" glyph-name="nine" horiz-adv-x="456" d="M234 290Q247 290 267 294T309 309T355 338T400 385Q401 398 401 411T402 438Q402 478 393 512T367 572T324 612T268 626Q236 626 207 611T156 570T120 510T106 438Q106 370 138 330T234 290ZM148 -12Q103
-12 74 8T24 64L48 80Q66 47 90 31T150 14Q195 14 235 39T307 109T363 213T396 344Q358 302 314 282T232 262Q195 262 167 274T119 309T89 361T78 428Q78 475 93 516T134 587T195 634T270 652Q307 652 337 637T387 593T419 527T430 444Q430 346 409 263T349 119T260
23T148 -12Z" />
<glyph unicode=":" glyph-name="colon" horiz-adv-x="202" d="M120 386Q106 386 99 395T92 416Q92 433 104 447T134 462Q148 462 154 453T160 430Q160 413 149 400T120 386ZM50 -12Q36 -12 29 -3T22 18Q22 35 34 49T64 64Q78 64 84 55T90 32Q90 15 79 2T50 -12Z" />
<glyph unicode=";" glyph-name="semicolon" horiz-adv-x="202" d="M120 386Q106 386 99 395T92 416Q92 433 104 447T134 462Q148 462 154 453T160 430Q160 413 149 400T120 386ZM-26 -146L-34 -122Q5 -104 31 -74T62 -8H56Q42 -8 34 0T26 22Q26 37 37 50T66 64Q82
64 90 52T98 22Q98 -6 89 -31T63 -79T23 -118T-26 -146Z" />
<glyph unicode="&lt;" glyph-name="less" horiz-adv-x="456" d="M436 156L46 316V344L436 504V476L206 382L84 332V328L206 278L436 184V156Z" />
<glyph unicode="=" glyph-name="equal" horiz-adv-x="456" d="M48 416V442H436V416H48ZM48 475V501H436V475H48Z" />
<glyph unicode="&gt;" glyph-name="greater" horiz-adv-x="456" d="M48 156V184L278 278L400 328V332L278 382L48 476V504L438 344V316L48 156Z" />
<glyph unicode="?" glyph-name="question" horiz-adv-x="380" d="M144 176Q146 220 162 254T202 318T253 373T304 425T342 481T358 548Q358 599 331 627T256 656Q220 656 186 639T128 594L110 614Q134 641 173 661T258 682Q318 682 352 648T386 554Q386 512 371
480T332 419T281 364T230 309T189 248T170 174L144 176ZM126 -12Q112 -12 105 -3T98 18Q98 35 110 49T140 64Q154 64 160 55T166 32Q166 15 155 2T126 -12Z" />
<glyph unicode="@" glyph-name="at" horiz-adv-x="772" d="M330 -142Q268 -142 216 -121T126 -60T67 36T46 164Q46 264 81 348T175 494T308 591T462 626Q527 626 578 605T663 547T716 457T734 340Q734 272 718 219T676 129T616 73T548 54Q512 54 491 75T464 130H462Q436
101 409 82T346 62Q326 62 307 70T272 94T248 134T238 190Q238 232 253 273T293 347T353 400T428 420Q452 420 471 406T504 368H506L518 412H542L494 200Q482 149 494 115T552 80Q580 80 607 97T657 147T692 227T706 334Q706 394 690 443T643 527T566 581T460 600Q387
600 318 567T194 477T107 340T74 170Q74 103 93 50T146 -40T227 -96T332 -116Q376 -116 411 -107T480 -78L492 -100Q453 -123 412 -132T330 -142ZM348 88Q404 88 458 160L498 338Q480 371 462 382T426 394Q391 394 362 376T311 328T278 264T266 196Q266 140 290
114T348 88Z" />
<glyph unicode="A" glyph-name="A" horiz-adv-x="480" d="M204 396L132 264H372L356 396Q350 452 343 509T330 626H326Q296 564 266 510T204 396ZM-46 0L320 660H350L434 0H404L375 238H118L-12 0H-46Z" />
<glyph unicode="B" glyph-name="B" horiz-adv-x="566" d="M40 0L172 660H328Q420 660 469 622T518 518Q518 480 504 451T467 401T418 368T368 352V348Q392 343 414 332T455 304T483 262T494 206Q494 153 475 115T422 51T338 13T230 0H40ZM142 364H260Q374 364
431 407T488 516Q488 572 446 603T312 634H196L142 364ZM74 26H212Q268 26 314 35T394 66T445 121T464 203Q464 261 416 299T278 338H138L74 26Z" />
<glyph unicode="C" glyph-name="C" horiz-adv-x="536" d="M278 -12Q222 -12 181 8T113 62T72 144T58 246Q58 318 80 393T145 531T249 632T390 672Q446 672 482 644T542 580L518 564Q498 599 467 622T388 646Q316 646 260 609T166 513T108 386T88 252Q88 202 99
159T133 83T193 33T280 14Q328 14 366 31T442 80L460 60Q418 25 375 7T278 -12Z" />
<glyph unicode="D" glyph-name="D" horiz-adv-x="572" d="M40 0L172 660H276Q344 660 395 642T479 589T529 508T546 404Q546 320 524 247T457 118T347 32T194 0H40ZM74 26H196Q273 26 333 56T433 139T495 259T516 402Q516 453 501 495T456 569T381 617T274 634H196L74
26Z" />
<glyph unicode="E" glyph-name="E" horiz-adv-x="484" d="M40 0L172 660H514L508 634H196L142 364H406L400 338H138L74 26H396L390 0H40Z" />
<glyph unicode="F" glyph-name="F" d="M40 0L172 660H514L508 634H196L140 352H404L398 326H136L70 0H40Z" />
<glyph unicode="G" glyph-name="G" horiz-adv-x="570" d="M288 -12Q229 -12 186 7T115 60T72 142T58 246Q58 319 80 395T145 532T253 633T400 672Q456 672 492 644T552 580L528 564Q508 599 477 622T398 646Q323 646 265 609T168 513T109 386T88 252Q88 203 99
160T134 85T196 33T290 14Q338 14 374 29T434 68L478 290H320L326 316H514L460 54Q425 24 383 6T288 -12Z" />
<glyph unicode="H" glyph-name="H" horiz-adv-x="598" d="M40 0L172 660H202L142 364H498L558 660H588L456 0H426L494 338H138L70 0H40Z" />
<glyph unicode="I" glyph-name="I" horiz-adv-x="218" d="M40 0L172 660H202L70 0H40Z" />
<glyph unicode="J" glyph-name="J" horiz-adv-x="428" d="M146 -12Q86 -12 52 17T2 90L28 102Q54 14 148 14Q207 14 243 57T294 170L392 660H422L324 168Q309 85 263 37T146 -12Z" />
<glyph unicode="K" glyph-name="K" horiz-adv-x="522" d="M40 0L172 660H202L128 290H130L526 660H564L312 420L464 0H432L288 400L120 244L70 0H40Z" />
<glyph unicode="L" glyph-name="L" horiz-adv-x="432" d="M40 0L172 660H202L76 26H376L370 0H40Z" />
<glyph unicode="M" glyph-name="M" horiz-adv-x="676" d="M40 0L172 660H222L288 262L314 112H318L396 262L616 660H666L534 0H504L596 460Q605 501 615 547T634 632H630L552 490L326 76H292L220 490L196 632H192Q184 591 177 546T162 460L70 0H40Z" />
<glyph unicode="N" glyph-name="N" horiz-adv-x="600" d="M40 0L172 660H206L390 174L438 42H442Q450 89 457 136T474 230L560 660H590L458 0H426L244 484L194 622H190Q182 574 174 528T156 436L70 0H40Z" />
<glyph unicode="O" glyph-name="O" horiz-adv-x="612" d="M274 -12Q220 -12 180 8T114 65T75 151T62 262Q62 306 71 353T98 446T142 533T203 605T280 654T372 672Q426 672 466 652T532 595T571 509T584 398Q584 354 575 307T548 214T504 127T443 55T366 6T274
-12ZM276 14Q343 14 395 51T482 145T536 268T554 394Q554 449 544 495T511 575T454 627T370 646Q325 646 287 629T218 582T164 515T124 434T100 349T92 266Q92 210 102 164T135 85T192 33T276 14Z" />
<glyph unicode="P" glyph-name="P" horiz-adv-x="524" d="M40 0L172 660H340Q431 660 481 624T532 510Q532 456 513 416T458 348T371 308T256 294H128L70 0H40ZM134 320H250Q375 320 438 367T502 508Q502 576 457 605T322 634H196L134 320Z" />
<glyph unicode="Q" glyph-name="Q" horiz-adv-x="612" d="M276 14Q343 14 395 51T482 145T536 268T554 394Q554 449 544 495T511 575T454 627T370 646Q325 646 287 629T218 582T164 515T124 434T100 349T92 266Q92 210 102 164T135 85T192 33T276 14ZM440 -150Q370
-150 316 -117T245 -10Q198 -5 164 17T107 75T73 158T62 262Q62 306 71 353T98 446T142 533T203 605T280 654T372 672Q426 672 466 652T532 595T571 509T584 398Q584 354 575 307T548 214T504 127T443 55T366 6T275 -12Q289 -68 334 -95T442 -122Q464 -122 488
-116L492 -144Q478 -147 467 -148T440 -150Z" />
<glyph unicode="R" glyph-name="R" horiz-adv-x="522" d="M40 0L172 660H332Q421 660 471 627T522 518Q522 474 506 438T461 375T392 332T305 311L434 0H400L273 310H132L70 0H40ZM138 336H260Q372 336 432 383T492 516Q492 581 448 607T314 634H196L138 336Z" />
<glyph unicode="S" glyph-name="S" horiz-adv-x="488" d="M226 -12Q155 -12 103 16T18 98L42 114Q74 66 119 40T230 14Q267 14 299 25T356 58T394 109T408 176Q408 221 385 252T322 306L234 358Q214 370 195 385T162 418T139 458T130 506Q130 539 143 569T181
622T239 658T314 672Q374 672 419 646T490 584L468 566Q442 599 402 622T308 646Q274 646 247 634T201 603T171 559T160 510Q160 462 186 433T248 384L334 334Q381 307 409 271T438 180Q438 136 422 101T377 41T310 2T226 -12Z" />
<glyph unicode="T" glyph-name="T" horiz-adv-x="492" d="M180 0L306 632H100L106 660H548L542 632H336L210 0H180Z" />
<glyph unicode="U" glyph-name="U" horiz-adv-x="594" d="M90 262L170 660H200L122 270Q116 246 114 226T112 188Q112 105 152 60T272 14Q304 14 335 26T392 65T439 134T472 238L556 660H586L500 230Q486 162 463 116T408 42T341 1T268 -12Q180 -12 131 38T82
180Q82 200 83 219T90 262Z" />
<glyph unicode="V" glyph-name="V" horiz-adv-x="450" d="M146 0L84 660H112L148 260Q154 206 159 150T170 38H174Q201 92 230 149T288 260L498 660H528L180 0H146Z" />
<glyph unicode="W" glyph-name="W" horiz-adv-x="726" d="M110 0L108 660H138V260Q136 206 137 152T136 44H140Q166 98 191 152T240 260L428 660H462L476 260Q479 206 480 152T484 44H488Q511 98 533 152T580 260L748 660H780L496 0H458L442 472Q442 513 441 550T440
628H436Q421 587 404 550T368 472L148 0H110Z" />
<glyph unicode="X" glyph-name="X" horiz-adv-x="446" d="M-36 0L224 344L110 660H140L214 450Q222 427 228 408T244 366H246Q264 387 281 410T316 456L468 660H500L256 338L380 0H350L272 218Q263 242 254 267T236 318H234Q213 292 193 264T154 212L-4 0H-36Z" />
<glyph unicode="Y" glyph-name="Y" horiz-adv-x="422" d="M140 0L195 273L86 660H116L175 445Q185 409 194 375T214 303H217Q242 338 266 374T315 445L466 660H498L225 273L170 0H140Z" />
<glyph unicode="Z" glyph-name="Z" horiz-adv-x="502" d="M2 0L6 18L486 634H152L158 660H528L524 642L46 26H416L410 0H2Z" />
<glyph unicode="[" glyph-name="bracketleft" horiz-adv-x="262" d="M18 -152L190 708H334L332 686H208L46 -130H168L162 -152H18Z" />
<glyph unicode="\" glyph-name="backslash" horiz-adv-x="350" d="M238 -160L90 710H114L262 -160H238Z" />
<glyph unicode="]" glyph-name="bracketright" horiz-adv-x="262" d="M-64 -152L-60 -130H62L228 686H104L108 708H254L82 -152H-64Z" />
<glyph unicode="^" glyph-name="asciicircum" horiz-adv-x="458" d="M92 290L236 670H260L404 290H378L298 502L250 634H248L200 502L120 290H92Z" />
<glyph unicode="_" glyph-name="underscore" horiz-adv-x="484" d="M-26 -112L-20 -84H438L432 -112H-26Z" />
<glyph unicode="`" glyph-name="grave" horiz-adv-x="504" d="M364 570L250 730L276 748L384 584L364 570Z" />
<glyph unicode="a" glyph-name="a" horiz-adv-x="524" d="M186 -12Q123 -12 85 31T46 160Q46 229 68 289T126 394T209 464T306 490Q350 490 381 468T432 410H436L454 478H478L382 0H358L370 78H366Q328 39 283 14T186 -12ZM188 14Q238 14 285 42T378 122L430 372Q401
422 371 443T304 464Q259 464 218 438T144 370T93 275T74 166Q74 89 104 52T188 14Z" />
<glyph unicode="b" glyph-name="b" horiz-adv-x="522" d="M68 0H44L188 722H216L172 506L152 408H154Q193 440 239 465T336 490Q399 490 437 447T476 318Q476 249 454 189T396 84T312 14T216 -12Q172 -12 141 10T90 68H86L68 0ZM334 464Q313 464 289 457T241 438T192
408T146 372L92 106Q121 56 151 35T218 14Q263 14 304 39T378 107T429 202T448 312Q448 388 418 426T334 464Z" />
<glyph unicode="c" glyph-name="c" horiz-adv-x="428" d="M210 -12Q133 -12 89 36T44 176Q44 246 66 304T124 403T205 467T298 490Q339 490 366 475T418 432L398 412Q375 439 353 451T296 464Q254 464 214 442T142 380T91 290T72 182Q72 99 106 57T212 14Q250
14 282 29T342 66L358 44Q332 24 296 6T210 -12Z" />
<glyph unicode="d" glyph-name="d" horiz-adv-x="526" d="M436 410L456 506L500 722H528L382 0H358L370 78H366Q328 39 283 14T186 -12Q123 -12 85 31T46 160Q46 229 68 289T126 394T209 464T306 490Q350 490 381 468T432 410H436ZM188 14Q238 14 285 42T378 122L430
372Q401 422 371 443T304 464Q259 464 218 438T144 370T93 275T74 166Q74 89 104 52T188 14Z" />
<glyph unicode="e" glyph-name="e" horiz-adv-x="468" d="M44 184Q44 252 65 308T121 405T200 468T290 490Q328 490 355 478T399 443T424 390T432 322Q432 298 429 278T420 242H78Q67 182 75 139T104 68T156 27T226 14Q259 14 291 28T350 62L364 40Q335 19 299
4T224 -12Q141 -12 93 37T44 184ZM84 268H398Q401 283 402 297T404 328Q404 353 398 377T379 421T343 452T288 464Q254 464 222 450T162 409T115 347T84 268Z" />
<glyph unicode="f" glyph-name="f" horiz-adv-x="246" d="M76 452L80 474L144 478L168 598Q183 669 216 701T292 734Q316 734 332 728T362 712L348 690Q336 698 323 703T290 708Q271 708 256 699T229 675T209 640T196 598L172 478H280L274 452H166L76 0H48L138 452H76Z" />
<glyph unicode="g" glyph-name="g" horiz-adv-x="518" d="M166 -234Q113 -234 75 -214T6 -168L24 -146Q51 -172 87 -190T168 -208Q241 -208 283 -159T342 -30L366 86Q324 45 280 21T184 -4Q122 -4 84 39T46 166Q46 233 68 292T126 395T207 464T300 490Q343 490
374 468T426 410H430L448 478H472L366 -48Q348 -134 298 -184T166 -234ZM186 22Q228 22 278 49T372 124L424 372Q395 422 365 443T298 464Q255 464 215 439T144 372T93 278T74 172Q74 97 103 60T186 22Z" />
<glyph unicode="h" glyph-name="h" horiz-adv-x="498" d="M44 0L188 722H216L160 444L148 398H152Q200 439 242 464T328 490Q390 490 416 458T442 374Q442 356 441 344T434 310L372 0H344L406 306Q411 329 412 342T414 370Q414 417 393 440T324 464Q291 464 246
439T144 358L72 0H44Z" />
<glyph unicode="i" glyph-name="i" horiz-adv-x="214" d="M44 0L140 478H168L72 0H44ZM180 600Q168 600 160 608T152 628Q152 646 163 657T188 668Q200 668 208 660T216 638Q216 621 205 611T180 600Z" />
<glyph unicode="j" glyph-name="j" horiz-adv-x="214" d="M-60 -234Q-81 -234 -94 -229T-118 -218L-106 -194Q-97 -200 -88 -204T-58 -208Q-28 -208 -9 -180T22 -104L140 478H168L52 -98Q38 -163 12 -198T-60 -234ZM180 600Q168 600 160 608T152 628Q152 646 163
657T188 668Q200 668 208 660T216 638Q216 621 205 611T180 600Z" />
<glyph unicode="k" glyph-name="k" horiz-adv-x="436" d="M44 0L188 722H216L108 176H110L408 478H444L258 286L374 0H344L236 266L98 126L72 0H44Z" />
<glyph unicode="l" glyph-name="l" horiz-adv-x="226" d="M86 -12Q71 -12 61 -3T50 24Q50 29 51 35T54 50L188 722H216L82 48Q80 40 80 36T80 28Q80 14 94 14Q97 14 99 14T110 18L114 -6Q106 -9 101 -10T86 -12Z" />
<glyph unicode="m" glyph-name="m" horiz-adv-x="776" d="M44 0L140 478H164L152 400H156Q197 439 239 464T316 490Q346 490 366 482T400 459T419 427T426 388Q477 438 522 464T602 490Q662 490 688 458T714 374Q714 356 713 344T706 310L644 0H616L678 306Q683
329 684 342T686 370Q686 417 666 440T598 464Q574 464 529 439T430 358L358 0H330L392 306Q397 329 398 342T400 370Q400 417 380 440T312 464Q288 464 243 439T144 358L72 0H44Z" />
<glyph unicode="n" glyph-name="n" horiz-adv-x="504" d="M44 0L140 478H164L152 400H156Q201 439 242 464T328 490Q390 490 416 458T442 374Q442 356 441 344T434 310L372 0H344L406 306Q411 329 412 342T414 370Q414 417 393 440T324 464Q291 464 246 439T144
358L72 0H44Z" />
<glyph unicode="o" glyph-name="o" horiz-adv-x="500" d="M204 -12Q132 -12 89 36T46 176Q46 243 67 300T122 400T202 466T296 490Q368 490 411 442T454 302Q454 235 433 178T378 78T298 12T204 -12ZM206 14Q246 14 285 36T356 98T407 188T426 296Q426 379 392
421T294 464Q253 464 214 442T144 380T93 290T74 182Q74 99 108 57T206 14Z" />
<glyph unicode="p" glyph-name="p" horiz-adv-x="520" d="M84 68L62 -42L28 -222H0L140 478H164L152 408H156Q195 440 240 465T336 490Q399 490 437 446T476 318Q476 249 454 189T396 84T312 14T216 -12Q172 -12 140 10T86 68H84ZM334 464Q313 464 289 457T241
438T192 408T146 370L92 102Q121 54 151 34T218 14Q263 14 304 39T378 107T429 202T448 312Q448 388 418 426T334 464Z" />
<glyph unicode="q" glyph-name="q" horiz-adv-x="524" d="M346 -42L370 80H368Q330 41 284 15T186 -12Q123 -12 85 31T46 160Q46 229 68 289T126 394T209 464T306 490Q350 490 381 468T432 410H436L454 478H478L338 -222H310L346 -42ZM188 14Q230 14 281 42T378
122L430 372Q401 422 371 443T304 464Q259 464 218 438T144 370T93 275T74 166Q74 89 104 52T188 14Z" />
<glyph unicode="r" glyph-name="r" horiz-adv-x="308" d="M44 0L140 478H164L148 388H152Q182 430 218 460T302 490Q311 490 321 489T344 482L332 454Q326 457 318 459T296 462Q257 462 213 425T136 322L72 0H44Z" />
<glyph unicode="s" glyph-name="s" horiz-adv-x="384" d="M158 -12Q132 -12 108 -4T63 16T26 44T0 76L22 92Q42 60 78 37T162 14Q188 14 211 22T253 46T281 80T292 122Q292 137 289 150T275 175T247 201T200 230Q166 248 143 263T106 294T86 324T80 358Q80 388
92 412T124 454T170 480T226 490Q265 490 297 475T354 434L334 414Q314 435 288 449T224 464Q200 464 179 456T142 435T117 403T108 364Q108 328 135 306T198 264Q239 241 263 223T300 189T316 158T320 128Q320 96 308 70T274 26T222 -2T158 -12Z" />
<glyph unicode="t" glyph-name="t" horiz-adv-x="290" d="M170 -12Q116 -12 95 15T74 78Q74 92 75 102T78 124L146 452H70L74 474L152 478L184 616H208L180 478H312L306 452H174L106 122Q104 113 103 104T102 84Q102 49 116 32T172 14Q190 14 205 20T232 32L242
10Q228 2 210 -5T170 -12Z" />
<glyph unicode="u" glyph-name="u" horiz-adv-x="514" d="M468 478L372 0H348L360 80H356Q311 41 270 15T184 -12Q122 -12 96 20T70 104Q70 122 71 134T78 168L140 478H168L106 172Q101 149 100 136T98 108Q98 61 119 38T188 14Q221 14 266 39T368 120L440 478H468Z" />
<glyph unicode="v" glyph-name="v" horiz-adv-x="408" d="M136 0L58 478H86L136 166Q142 131 147 95T158 26H162Q180 61 199 96T238 166L408 478H438L174 0H136Z" />
<glyph unicode="w" glyph-name="w" horiz-adv-x="674" d="M112 0L68 478H96L124 154Q127 121 130 90T136 26H140Q155 58 169 89T198 154L348 478H388L412 154Q414 121 416 90T420 26H424Q439 58 453 89T484 154L638 478H666L438 0H396L374 312Q371 347 370 384T366
454H362Q347 421 331 384T298 312L154 0H112Z" />
<glyph unicode="x" glyph-name="x" horiz-adv-x="380" d="M-48 0L178 252L82 478H112L164 352Q173 329 180 311T196 272H200Q218 292 236 311T272 352L384 478H416L212 246L316 0H286L232 136Q223 159 213 182T192 228H188Q170 205 151 184T108 138L-14 0H-48Z" />
<glyph unicode="y" glyph-name="y" horiz-adv-x="408" d="M-40 -222Q-48 -222 -59 -220T-84 -212L-72 -188Q-56 -196 -38 -196Q7 -196 45 -158T116 -54L138 -10L58 478H86L136 166Q142 131 147 94T158 24H162Q180 59 199 94T238 166L408 478H438L138 -66Q124 -94
107 -121T67 -171T19 -208T-40 -222Z" />
<glyph unicode="z" glyph-name="z" horiz-adv-x="384" d="M-10 0L-8 18L364 452H110L116 478H406L404 460L32 26H324L318 0H-10Z" />
<glyph unicode="{" glyph-name="braceleft" horiz-adv-x="260" d="M130 -152Q88 -152 68 -136T48 -78Q48 -52 57 -13T77 68T97 148T106 212Q106 222 104 231T94 248T72 261T36 266L42 290Q68 290 85 297T114 316T131 342T140 372Q149 420 157 474T176 580Q183
617 193 642T218 681T253 702T300 708H332L328 686H296Q249 686 229 658T198 576Q189 531 182 481T166 382Q157 340 142 314T94 278V274Q115 265 121 250T128 220Q128 193 119 154T100 73T81 -8T72 -72Q72 -101 85 -115T136 -130H166L160 -152H130Z" />
<glyph unicode="|" glyph-name="bar" horiz-adv-x="212" d="M100 -250V750H126V-250H100Z" />
<glyph unicode="}" glyph-name="braceright" horiz-adv-x="262" d="M-64 -152L-60 -130H-28Q19 -130 39 -103T70 -22Q79 23 86 73T102 172Q111 216 126 242T174 278V282Q151 291 146 306T140 336Q140 362 148 401T167 481T187 561T196 626Q196 656 183 671T132
686H102L108 708H138Q180 708 200 691T220 634Q220 608 211 568T191 486T171 406T162 342Q162 333 164 324T174 307T195 295T232 290L226 266Q200 266 183 259T154 240T137 214T128 184Q119 136 111 81T92 -26Q84 -64 74 -88T49 -126T14 -146T-32 -152H-64Z" />
<glyph unicode="~" glyph-name="asciitilde" horiz-adv-x="456" d="M324 272Q297 272 274 286T230 318T190 349T150 364Q127 364 109 350T72 300L50 312Q70 351 96 370T150 390Q177 390 200 376T244 344T284 313T324 298Q347 298 365 312T402 362L424 350Q404
311 378 292T324 272Z" />
<glyph unicode="&#xa0;" glyph-name="uni00A0" horiz-adv-x="188" />
<glyph unicode="&#xa1;" glyph-name="exclamdown" horiz-adv-x="242" d="M24 -194L36 -130L124 306H148L64 -130L52 -194H24ZM156 414Q142 414 136 423T130 446Q130 463 141 476T170 490Q184 490 191 481T198 460Q198 443 186 429T156 414Z" />
<glyph unicode="&#xa2;" glyph-name="cent" horiz-adv-x="456" d="M112 294Q112 224 139 181T224 129L303 532Q270 529 236 511T175 462T130 389T112 294ZM196 -10L219 104Q155 112 119 159T82 288Q82 349 102 398T155 482T228 536T309 558L330 666H358L336 557Q374
552 400 535T446 494L426 474Q405 500 384 514T331 531L251 128Q292 130 325 145T384 180L398 156Q384 147 368 138T334 120T294 107T246 102L224 -10H196Z" />
<glyph unicode="&#xa3;" glyph-name="sterling" horiz-adv-x="456" d="M8 0L12 16Q89 57 124 124T160 268Q160 275 160 281T159 296H64L70 318L158 322Q156 352 153 383T150 442Q150 541 199 596T330 652Q354 652 373 645T408 626T436 600T456 570L432 554Q415
584 389 605T328 626Q295 626 268 613T220 576T189 520T178 448Q178 420 181 388T186 322H350L344 296H188V274Q188 194 161 136T80 30V26H358L354 0H8Z" />
<glyph unicode="&#xa4;" glyph-name="currency" horiz-adv-x="456" d="M30 132L14 152L89 218Q83 234 80 252T76 294Q76 340 92 381T138 453L90 518L110 534L157 471Q183 493 213 505T276 518Q340 518 376 471L450 536L466 516L389 448Q404 416 404 370Q404 326
389 287T348 218L404 144L384 128L330 199Q304 174 272 160T204 146Q136 146 102 195L30 132ZM206 172Q237 172 267 187T322 227T361 288T376 364Q376 427 350 459T274 492Q243 492 213 477T158 437T119 376T104 300Q104 237 130 205T206 172Z" />
<glyph unicode="&#xa5;" glyph-name="yen" horiz-adv-x="456" d="M164 0L198 170H36L42 194H204L218 272H56L62 296H212L114 640H142L198 436Q207 403 216 369T234 296H238Q264 335 286 369T332 436L464 640H494L264 296H414L408 272H246L232 194H394L388 170H226L192
0H164Z" />
<glyph unicode="&#xa6;" glyph-name="brokenbar" horiz-adv-x="212" d="M100 274V750H126V274H100ZM100 -250V220H126V-250H100Z" />
<glyph unicode="&#xa7;" glyph-name="section" horiz-adv-x="454" d="M90 352Q90 314 111 290T163 248T227 212T284 170Q308 179 326 188T356 211T374 243T380 286Q380 325 359 350T309 396T247 435T191 476Q144 458 117 429T90 352ZM174 -44Q132 -44 95 -26T26
24L46 46Q73 16 106 -1T176 -18Q198 -18 218 -10T254 11T279 44T288 86Q288 118 272 140T230 178T175 210T121 243T79 285T62 346Q62 403 93 439T175 495Q167 507 163 521T158 552Q158 582 168 605T196 645T237 671T288 680Q330 680 364 660T424 612L402 592Q379
619 350 636T286 654Q267 654 249 648T217 629T195 598T186 558Q186 528 202 508T243 470T297 436T350 401T391 355T408 292Q408 262 401 241T380 203T346 174T299 151Q316 126 316 92Q316 64 305 40T275 -3T230 -33T174 -44Z" />
<glyph unicode="&#xa8;" glyph-name="dieresis" horiz-adv-x="504" d="M254 602Q228 602 228 628Q228 645 238 655T260 666Q286 666 286 638Q286 623 276 613T254 602ZM420 602Q394 602 394 628Q394 645 404 655T426 666Q452 666 452 638Q452 623 442 613T420 602Z" />
<glyph unicode="&#xa9;" glyph-name="copyright" horiz-adv-x="660" d="M298 -12Q240 -12 193 8T111 64T59 151T40 264Q40 334 65 403T136 527T247 617T394 652Q452 652 499 632T581 576T633 488T652 376Q652 306 627 237T556 113T445 23T298 -12ZM300 12Q374
12 434 45T537 130T603 246T626 372Q626 430 610 477T563 558T489 610T392 628Q318 628 258 595T155 510T89 394T66 268Q66 209 82 162T129 82T203 30T300 12ZM322 124Q262 124 223 160T184 272Q184 327 202 371T249 446T313 493T382 510Q418 510 438 497T476 460L456
442Q441 462 424 473T380 484Q351 484 322 469T268 426T228 361T212 278Q212 213 242 182T324 150Q359 150 387 165T442 198L456 176Q426 155 396 140T322 124Z" />
<glyph unicode="&#xaa;" glyph-name="ordfeminine" horiz-adv-x="346" d="M92 518Q92 563 107 602T146 671T202 717T268 734Q292 734 313 723T348 684H352L364 726H384L322 410H300L310 462H306Q280 435 251 419T186 402Q144 402 118 431T92 518ZM188 426Q218
426 251 447T314 500L344 652Q326 685 307 697T266 710Q238 710 212 694T164 652T131 591T118 522Q118 472 138 449T188 426Z" />
<glyph unicode="&#xab;" glyph-name="guillemotleft" horiz-adv-x="372" d="M142 74L40 240L46 272L204 428L220 412L72 252L162 86L142 74ZM278 74L176 240L182 272L340 428L356 412L208 252L298 86L278 74Z" />
<glyph unicode="&#xac;" glyph-name="logicalnot" horiz-adv-x="456" d="M408 110V318H48V344H436V110H408Z" />
<glyph unicode="&#xad;" glyph-name="uni00AD" horiz-adv-x="282" d="M36 236L42 264H248L242 236H36Z" />
<glyph unicode="&#xae;" glyph-name="registered" horiz-adv-x="376" d="M220 332Q188 332 160 343T111 376T78 427T66 494Q66 535 81 573T121 640T182 688T258 706Q289 706 317 694T366 661T399 610T412 544Q412 502 397 464T356 397T295 350T220 332ZM222 356Q255
356 284 370T336 410T372 469T386 540Q386 571 377 597T351 642T310 671T256 682Q222 682 193 667T141 627T105 568T92 498Q92 436 126 396T222 356ZM162 418L204 624H258Q287 624 302 610T318 566Q318 542 304 525T268 500L298 418H270L244 494H204L188 418H162ZM210
518H236Q262 518 277 529T292 564Q292 581 283 590T254 600H224L210 518Z" />
<glyph unicode="&#xaf;" glyph-name="overscore" horiz-adv-x="504" d="M218 608L222 634H454L450 608H218Z" />
<glyph unicode="&#xb0;" glyph-name="degree" horiz-adv-x="284" d="M198 456Q159 456 133 483T106 554Q106 580 115 603T139 645T175 673T220 684Q259 684 285 657T312 586Q312 560 303 537T279 495T243 467T198 456ZM200 480Q219 480 235 489T262 512T280 545T286
582Q286 615 268 637T218 660Q198 660 183 651T156 628T138 595T132 558Q132 525 150 503T200 480Z" />
<glyph unicode="&#xb1;" glyph-name="plusminus" horiz-adv-x="456" d="M228 110V318H48V344H228V546H256V344H436V318H256V110H228ZM48 0V26H436V0H48Z" />
<glyph unicode="&#xb2;" glyph-name="two.sups" horiz-adv-x="344" d="M90 410L94 434Q163 484 210 522T287 591T330 651T344 712Q344 748 325 768T266 788Q240 788 216 772T170 732L152 750Q175 774 204 793T268 812Q316 812 344 786T372 714Q372 679 358 648T315
584T242 515T136 434H336L332 410H90Z" />
<glyph unicode="&#xb3;" glyph-name="three.sups" horiz-adv-x="344" d="M210 398Q165 398 133 423T86 478L108 492Q123 463 147 443T212 422Q232 422 250 428T283 445T305 473T314 512Q314 547 283 573T190 600L196 624Q234 624 261 632T305 654T330 684T338
718Q338 750 318 769T262 788Q213 788 166 749L152 770Q203 812 264 812Q309 812 337 788T366 718Q366 682 339 651T266 608Q305 597 323 571T342 518Q342 489 331 467T302 430T260 406T210 398Z" />
<glyph unicode="&#xb4;" glyph-name="acute" horiz-adv-x="504" d="M298 580L282 598L436 740L456 716L298 580Z" />
<glyph unicode="&#xb5;" glyph-name="uni00B5" horiz-adv-x="510" d="M164 478L102 172Q97 149 96 136T94 108Q94 61 115 38T184 14Q217 14 262 39T364 120L436 478H464L368 0H344L356 80H352Q307 41 266 15T180 -12Q144 -12 116 4T76 58L58 -42L28 -200H0L136 478H164Z" />
<glyph unicode="&#xb6;" glyph-name="paragraph" horiz-adv-x="476" d="M288 -80L436 660H464L316 -80H288ZM300 248Q254 248 214 259T143 291T94 344T76 418Q76 478 98 523T156 599T238 644T334 660H386L302 248H300Z" />
<glyph unicode="&#xb7;" glyph-name="middot" horiz-adv-x="202" d="M110 292Q96 292 89 301T82 322Q82 339 94 353T124 368Q138 368 144 359T150 336Q150 319 139 306T110 292Z" />
<glyph unicode="&#xb8;" glyph-name="cedilla" horiz-adv-x="504" d="M92 -216L90 -192Q152 -190 183 -174T214 -132Q214 -109 197 -99T146 -86L202 2H230L188 -68Q223 -77 233 -90T244 -124Q244 -167 202 -190T92 -216Z" />
<glyph unicode="&#xb9;" glyph-name="one.sups" horiz-adv-x="340" d="M206 410L272 744H180L184 764Q222 770 244 777T288 800H310L232 410H206Z" />
<glyph unicode="&#xba;" glyph-name="ordmasculine" horiz-adv-x="340" d="M172 402Q121 402 93 434T64 526Q64 573 79 611T118 677T173 719T236 734Q287 734 315 702T344 610Q344 563 329 525T290 459T234 417T172 402ZM174 426Q202 426 228 440T274 480T306
537T318 606Q318 656 297 683T234 710Q206 710 180 696T134 656T102 599T90 530Q90 480 111 453T174 426Z" />
<glyph unicode="&#xbb;" glyph-name="guillemotright" horiz-adv-x="372" d="M36 74L20 90L168 250L78 416L98 428L200 262L194 230L36 74ZM172 74L156 90L304 250L214 416L234 428L336 262L330 230L172 74Z" />
<glyph unicode="&#xbc;" glyph-name="onequarter" horiz-adv-x="724" d="M156 270L222 604H130L134 624Q172 630 194 637T238 660H260L182 270H156ZM120 -12L612 672H642L150 -12H120ZM544 0L568 120H398L402 138L630 390H648L599 144H656L650 120H594L570 0H544ZM438
144H573L592 242L616 340H612L540 258L438 144Z" />
<glyph unicode="&#xbd;" glyph-name="onehalf" horiz-adv-x="740" d="M152 270L218 604H126L130 624Q168 630 190 637T234 660H256L178 270H152ZM90 -12L582 672H612L120 -12H90ZM402 0L406 24Q475 74 522 112T599 181T642 241T656 302Q656 338 637 358T578 378Q552
378 528 362T482 322L464 340Q487 364 516 383T580 402Q628 402 656 376T684 304Q684 269 670 238T627 174T554 105T448 24H648L644 0H402Z" />
<glyph unicode="&#xbe;" glyph-name="threequarters" horiz-adv-x="744" d="M176 258Q131 258 99 283T52 338L74 352Q89 323 113 303T178 282Q198 282 216 288T249 305T271 333T280 372Q280 407 249 433T156 460L162 484Q200 484 227 492T271 514T296 544T304
578Q304 610 284 629T228 648Q179 648 132 609L118 630Q169 672 230 672Q275 672 303 648T332 578Q332 542 305 511T232 468Q271 457 289 431T308 378Q308 349 297 327T268 290T226 266T176 258ZM162 -12L654 672H684L192 -12H162ZM566 0L590 120H420L424 138L652
390H670L621 144H678L672 120H616L592 0H566ZM460 144H595L614 242L638 340H634L562 258L460 144Z" />
<glyph unicode="&#xbf;" glyph-name="questiondown" horiz-adv-x="380" d="M122 -202Q62 -202 28 -168T-6 -74Q-6 -33 9 0T48 61T99 116T150 171T191 232T210 306L236 304Q235 260 219 226T178 162T127 107T76 55T38 -2T22 -68Q22 -119 49 -147T124 -176Q160 -176
194 -159T252 -114L270 -134Q246 -161 207 -181T122 -202ZM240 416Q226 416 220 425T214 448Q214 465 225 478T254 492Q268 492 275 483T282 462Q282 445 270 431T240 416Z" />
<glyph unicode="&#xc0;" glyph-name="Agrave" horiz-adv-x="480" d="M204 396L132 264H372L356 396Q350 452 343 509T330 626H326Q296 564 266 510T204 396ZM-46 0L320 660H350L434 0H404L375 238H118L-12 0H-46ZM354 706L244 828L268 848L370 720L354 706Z" />
<glyph unicode="&#xc1;" glyph-name="Aacute" horiz-adv-x="480" d="M204 396L132 264H372L356 396Q350 452 343 509T330 626H326Q296 564 266 510T204 396ZM-46 0L320 660H350L434 0H404L375 238H118L-12 0H-46ZM324 716L312 732L452 842L470 816L324 716Z" />
<glyph unicode="&#xc2;" glyph-name="Acircumflex" horiz-adv-x="480" d="M204 396L132 264H372L356 396Q350 452 343 509T330 626H326Q296 564 266 510T204 396ZM-46 0L320 660H350L434 0H404L375 238H118L-12 0H-46ZM222 710L208 726L344 840H372L468 726L452
712L358 812H354L222 710Z" />
<glyph unicode="&#xc3;" glyph-name="Atilde" horiz-adv-x="480" d="M204 396L132 264H372L356 396Q350 452 343 509T330 626H326Q296 564 266 510T204 396ZM-46 0L320 660H350L434 0H404L375 238H118L-12 0H-46ZM414 722Q388 722 372 735T342 764T314 793T280
806Q257 806 238 784T208 724L186 726Q194 771 220 801T286 832Q311 832 327 819T357 790T385 761T420 748Q443 748 461 770T492 830L514 828Q506 783 480 753T414 722Z" />
<glyph unicode="&#xc4;" glyph-name="Adieresis" horiz-adv-x="480" d="M204 396L132 264H372L356 396Q350 452 343 509T330 626H326Q296 564 266 510T204 396ZM-46 0L320 660H350L434 0H404L375 238H118L-12 0H-46ZM256 726Q230 726 230 752Q230 769 240 779T262
790Q288 790 288 762Q288 747 278 737T256 726ZM422 726Q396 726 396 752Q396 769 406 779T428 790Q454 790 454 762Q454 747 444 737T422 726Z" />
<glyph unicode="&#xc5;" glyph-name="Aring" horiz-adv-x="480" d="M204 396L132 264H372L356 396Q350 452 343 509T330 626H326Q296 564 266 510T204 396ZM-46 0L320 660H350L434 0H404L375 238H118L-12 0H-46ZM338 702Q309 702 288 720T266 776Q266 814 292
840T358 866Q387 866 408 848T430 792Q430 754 404 728T338 702ZM340 724Q366 724 386 742T406 790Q406 816 393 830T356 844Q330 844 310 826T290 778Q290 752 303 738T340 724Z" />
<glyph unicode="&#xc6;" glyph-name="AE" horiz-adv-x="774" d="M292 392L189 252H394L470 632H466L292 392ZM-32 0L458 660H804L798 634H500L446 364H696L690 338H442L378 26H686L680 0H344L389 226H170L4 0H-32Z" />
<glyph unicode="&#xc7;" glyph-name="Ccedilla" horiz-adv-x="536" d="M278 -12Q222 -12 181 8T113 62T72 144T58 246Q58 318 80 393T145 531T249 632T390 672Q446 672 482 644T542 580L518 564Q498 599 467 622T388 646Q316 646 260 609T166 513T108 386T88 252Q88
202 99 159T133 83T193 33T280 14Q328 14 366 31T442 80L460 60Q418 25 375 7T278 -12ZM152 -216L150 -192Q212 -190 243 -174T274 -132Q274 -109 257 -99T206 -86L262 2H290L248 -68Q283 -77 293 -90T304 -124Q304 -167 262 -190T152 -216Z" />
<glyph unicode="&#xc8;" glyph-name="Egrave" horiz-adv-x="484" d="M40 0L172 660H514L508 634H196L142 364H406L400 338H138L74 26H396L390 0H40ZM372 706L262 828L286 848L388 720L372 706Z" />
<glyph unicode="&#xc9;" glyph-name="Eacute" horiz-adv-x="484" d="M40 0L172 660H514L508 634H196L142 364H406L400 338H138L74 26H396L390 0H40ZM342 716L330 732L470 842L488 816L342 716Z" />
<glyph unicode="&#xca;" glyph-name="Ecircumflex" horiz-adv-x="484" d="M40 0L172 660H514L508 634H196L142 364H406L400 338H138L74 26H396L390 0H40ZM240 710L226 726L362 840H390L486 726L470 712L376 812H372L240 710Z" />
<glyph unicode="&#xcb;" glyph-name="Edieresis" horiz-adv-x="484" d="M40 0L172 660H514L508 634H196L142 364H406L400 338H138L74 26H396L390 0H40ZM274 726Q248 726 248 752Q248 769 258 779T280 790Q306 790 306 762Q306 747 296 737T274 726ZM440 726Q414
726 414 752Q414 769 424 779T446 790Q472 790 472 762Q472 747 462 737T440 726Z" />
<glyph unicode="&#xcc;" glyph-name="Igrave" horiz-adv-x="218" d="M40 0L172 660H202L70 0H40ZM212 706L102 828L126 848L228 720L212 706Z" />
<glyph unicode="&#xcd;" glyph-name="Iacute" horiz-adv-x="218" d="M40 0L172 660H202L70 0H40ZM182 716L170 732L310 842L328 816L182 716Z" />
<glyph unicode="&#xce;" glyph-name="Icircumflex" horiz-adv-x="218" d="M40 0L172 660H202L70 0H40ZM80 710L66 726L202 840H230L326 726L310 712L216 812H212L80 710Z" />
<glyph unicode="&#xcf;" glyph-name="Idieresis" horiz-adv-x="218" d="M40 0L172 660H202L70 0H40ZM114 726Q88 726 88 752Q88 769 98 779T120 790Q146 790 146 762Q146 747 136 737T114 726ZM280 726Q254 726 254 752Q254 769 264 779T286 790Q312 790 312 762Q312
747 302 737T280 726Z" />
<glyph unicode="&#xd0;" glyph-name="Eth" horiz-adv-x="590" d="M54 338L60 362L131 364L190 660H294Q362 660 413 642T497 589T547 508T564 404Q564 320 542 247T475 118T365 32T212 0H58L126 338H54ZM92 26H214Q291 26 351 56T451 139T513 259T534 402Q534
453 519 495T474 569T399 617T292 634H214L160 364H330L324 338H155L92 26Z" />
<glyph unicode="&#xd1;" glyph-name="Ntilde" horiz-adv-x="600" d="M40 0L172 660H206L390 174L438 42H442Q450 89 457 136T474 230L560 660H590L458 0H426L244 484L194 622H190Q182 574 174 528T156 436L70 0H40ZM466 722Q440 722 424 735T394 764T366 793T332
806Q309 806 290 784T260 724L238 726Q246 771 272 801T338 832Q363 832 379 819T409 790T437 761T472 748Q495 748 513 770T544 830L566 828Q558 783 532 753T466 722Z" />
<glyph unicode="&#xd2;" glyph-name="Ograve" horiz-adv-x="612" d="M274 -12Q220 -12 180 8T114 65T75 151T62 262Q62 306 71 353T98 446T142 533T203 605T280 654T372 672Q426 672 466 652T532 595T571 509T584 398Q584 354 575 307T548 214T504 127T443 55T366
6T274 -12ZM276 14Q343 14 395 51T482 145T536 268T554 394Q554 449 544 495T511 575T454 627T370 646Q325 646 287 629T218 582T164 515T124 434T100 349T92 266Q92 210 102 164T135 85T192 33T276 14ZM416 706L306 828L330 848L432 720L416 706Z" />
<glyph unicode="&#xd3;" glyph-name="Oacute" horiz-adv-x="612" d="M274 -12Q220 -12 180 8T114 65T75 151T62 262Q62 306 71 353T98 446T142 533T203 605T280 654T372 672Q426 672 466 652T532 595T571 509T584 398Q584 354 575 307T548 214T504 127T443 55T366
6T274 -12ZM276 14Q343 14 395 51T482 145T536 268T554 394Q554 449 544 495T511 575T454 627T370 646Q325 646 287 629T218 582T164 515T124 434T100 349T92 266Q92 210 102 164T135 85T192 33T276 14ZM386 716L374 732L514 842L532 816L386 716Z" />
<glyph unicode="&#xd4;" glyph-name="Ocircumflex" horiz-adv-x="612" d="M274 -12Q220 -12 180 8T114 65T75 151T62 262Q62 306 71 353T98 446T142 533T203 605T280 654T372 672Q426 672 466 652T532 595T571 509T584 398Q584 354 575 307T548 214T504 127T443
55T366 6T274 -12ZM276 14Q343 14 395 51T482 145T536 268T554 394Q554 449 544 495T511 575T454 627T370 646Q325 646 287 629T218 582T164 515T124 434T100 349T92 266Q92 210 102 164T135 85T192 33T276 14ZM284 710L270 726L406 840H434L530 726L514 712L420
812H416L284 710Z" />
<glyph unicode="&#xd5;" glyph-name="Otilde" horiz-adv-x="612" d="M274 -12Q220 -12 180 8T114 65T75 151T62 262Q62 306 71 353T98 446T142 533T203 605T280 654T372 672Q426 672 466 652T532 595T571 509T584 398Q584 354 575 307T548 214T504 127T443 55T366
6T274 -12ZM276 14Q343 14 395 51T482 145T536 268T554 394Q554 449 544 495T511 575T454 627T370 646Q325 646 287 629T218 582T164 515T124 434T100 349T92 266Q92 210 102 164T135 85T192 33T276 14ZM476 722Q450 722 434 735T404 764T376 793T342 806Q319 806
300 784T270 724L248 726Q256 771 282 801T348 832Q373 832 389 819T419 790T447 761T482 748Q505 748 523 770T554 830L576 828Q568 783 542 753T476 722Z" />
<glyph unicode="&#xd6;" glyph-name="Odieresis" horiz-adv-x="612" d="M274 -12Q220 -12 180 8T114 65T75 151T62 262Q62 306 71 353T98 446T142 533T203 605T280 654T372 672Q426 672 466 652T532 595T571 509T584 398Q584 354 575 307T548 214T504 127T443
55T366 6T274 -12ZM276 14Q343 14 395 51T482 145T536 268T554 394Q554 449 544 495T511 575T454 627T370 646Q325 646 287 629T218 582T164 515T124 434T100 349T92 266Q92 210 102 164T135 85T192 33T276 14ZM318 726Q292 726 292 752Q292 769 302 779T324 790Q350
790 350 762Q350 747 340 737T318 726ZM484 726Q458 726 458 752Q458 769 468 779T490 790Q516 790 516 762Q516 747 506 737T484 726Z" />
<glyph unicode="&#xd7;" glyph-name="multiply" horiz-adv-x="456" d="M84 148L66 166L224 332L66 496L84 514L242 350L400 514L418 496L260 332L418 166L400 148L242 314L84 148Z" />
<glyph unicode="&#xd8;" glyph-name="Oslash" horiz-adv-x="612" d="M274 -12Q217 -12 176 10T109 72L24 -22L2 -4L95 97Q62 164 62 262Q62 306 71 353T98 446T142 533T203 605T280 654T372 672Q430 672 472 649T540 584L626 678L642 660L552 561Q569 527 576
487T584 398Q584 354 575 307T548 214T504 127T443 55T366 6T274 -12ZM92 266Q92 181 116 121L519 561Q497 601 461 623T370 646Q325 646 287 629T218 582T164 515T124 434T100 349T92 266ZM276 14Q343 14 395 51T482 145T536 268T554 394Q554 436 549 472T531
537L129 94Q152 56 187 35T276 14Z" />
<glyph unicode="&#xd9;" glyph-name="Ugrave" horiz-adv-x="594" d="M90 262L170 660H200L122 270Q116 246 114 226T112 188Q112 105 152 60T272 14Q304 14 335 26T392 65T439 134T472 238L556 660H586L500 230Q486 162 463 116T408 42T341 1T268 -12Q180 -12
131 38T82 180Q82 200 83 219T90 262ZM404 706L294 828L318 848L420 720L404 706Z" />
<glyph unicode="&#xda;" glyph-name="Uacute" horiz-adv-x="594" d="M90 262L170 660H200L122 270Q116 246 114 226T112 188Q112 105 152 60T272 14Q304 14 335 26T392 65T439 134T472 238L556 660H586L500 230Q486 162 463 116T408 42T341 1T268 -12Q180 -12
131 38T82 180Q82 200 83 219T90 262ZM374 716L362 732L502 842L520 816L374 716Z" />
<glyph unicode="&#xdb;" glyph-name="Ucircumflex" horiz-adv-x="594" d="M90 262L170 660H200L122 270Q116 246 114 226T112 188Q112 105 152 60T272 14Q304 14 335 26T392 65T439 134T472 238L556 660H586L500 230Q486 162 463 116T408 42T341 1T268 -12Q180
-12 131 38T82 180Q82 200 83 219T90 262ZM272 710L258 726L394 840H422L518 726L502 712L408 812H404L272 710Z" />
<glyph unicode="&#xdc;" glyph-name="Udieresis" horiz-adv-x="594" d="M90 262L170 660H200L122 270Q116 246 114 226T112 188Q112 105 152 60T272 14Q304 14 335 26T392 65T439 134T472 238L556 660H586L500 230Q486 162 463 116T408 42T341 1T268 -12Q180 -12
131 38T82 180Q82 200 83 219T90 262ZM306 726Q280 726 280 752Q280 769 290 779T312 790Q338 790 338 762Q338 747 328 737T306 726ZM472 726Q446 726 446 752Q446 769 456 779T478 790Q504 790 504 762Q504 747 494 737T472 726Z" />
<glyph unicode="&#xdd;" glyph-name="Yacute" horiz-adv-x="422" d="M140 0L195 273L86 660H116L175 445Q185 409 194 375T214 303H217Q242 338 266 374T315 445L466 660H498L225 273L170 0H140ZM280 716L268 732L408 842L426 816L280 716Z" />
<glyph unicode="&#xde;" glyph-name="Thorn" horiz-adv-x="536" d="M40 0L172 660H202L178 536H314Q405 536 455 500T506 386Q506 332 487 292T432 224T345 184T230 170H104L70 0H40ZM110 196H224Q349 196 412 243T476 384Q476 452 431 481T296 510H172L110 196Z" />
<glyph unicode="&#xdf;" glyph-name="germandbls" horiz-adv-x="512" d="M310 -12Q275 -12 240 2T176 42L194 62Q221 39 249 27T312 14Q336 14 357 22T395 45T422 80T432 124Q432 153 420 175T390 214T351 246T312 277T282 311T270 356Q270 385 281 407T308 448T344
484T379 521T407 563T418 616Q418 655 399 681T334 708Q305 708 280 694T234 656T200 600T178 530L72 0H44L152 540Q160 579 176 614T216 676T270 718T336 734Q387 734 416 704T446 616Q446 566 423 533T372 474T321 423T298 362Q298 338 310 321T340 288T379 258T418
226T448 185T460 130Q460 101 449 75T418 30T371 -1T310 -12Z" />
<glyph unicode="&#xe0;" glyph-name="agrave" horiz-adv-x="524" d="M186 -12Q123 -12 85 31T46 160Q46 229 68 289T126 394T209 464T306 490Q350 490 381 468T432 410H436L454 478H478L382 0H358L370 78H366Q328 39 283 14T186 -12ZM188 14Q238 14 285 42T378
122L430 372Q401 422 371 443T304 464Q259 464 218 438T144 370T93 275T74 166Q74 89 104 52T188 14ZM360 570L246 730L272 748L380 584L360 570Z" />
<glyph unicode="&#xe1;" glyph-name="aacute" horiz-adv-x="524" d="M186 -12Q123 -12 85 31T46 160Q46 229 68 289T126 394T209 464T306 490Q350 490 381 468T432 410H436L454 478H478L382 0H358L370 78H366Q328 39 283 14T186 -12ZM188 14Q238 14 285 42T378
122L430 372Q401 422 371 443T304 464Q259 464 218 438T144 370T93 275T74 166Q74 89 104 52T188 14ZM294 580L278 598L432 740L452 716L294 580Z" />
<glyph unicode="&#xe2;" glyph-name="acircumflex" horiz-adv-x="524" d="M186 -12Q123 -12 85 31T46 160Q46 229 68 289T126 394T209 464T306 490Q350 490 381 468T432 410H436L454 478H478L382 0H358L370 78H366Q328 39 283 14T186 -12ZM188 14Q238 14 285 42T378
122L430 372Q401 422 371 443T304 464Q259 464 218 438T144 370T93 275T74 166Q74 89 104 52T188 14ZM212 574L194 590L338 736H366L458 588L438 574L352 706H348L212 574Z" />
<glyph unicode="&#xe3;" glyph-name="atilde" horiz-adv-x="524" d="M186 -12Q123 -12 85 31T46 160Q46 229 68 289T126 394T209 464T306 490Q350 490 381 468T432 410H436L454 478H478L382 0H358L370 78H366Q328 39 283 14T186 -12ZM188 14Q238 14 285 42T378
122L430 372Q401 422 371 443T304 464Q259 464 218 438T144 370T93 275T74 166Q74 89 104 52T188 14ZM408 580Q381 580 366 596T338 631T312 666T276 682Q247 682 230 653T204 582L178 584Q183 606 191 627T211 666T240 695T280 706Q307 706 322 690T350 655T376
620T412 604Q440 604 457 634T484 704L510 702Q505 681 497 660T477 620T448 591T408 580Z" />
<glyph unicode="&#xe4;" glyph-name="adieresis" horiz-adv-x="524" d="M186 -12Q123 -12 85 31T46 160Q46 229 68 289T126 394T209 464T306 490Q350 490 381 468T432 410H436L454 478H478L382 0H358L370 78H366Q328 39 283 14T186 -12ZM188 14Q238 14 285 42T378
122L430 372Q401 422 371 443T304 464Q259 464 218 438T144 370T93 275T74 166Q74 89 104 52T188 14ZM250 602Q224 602 224 628Q224 645 234 655T256 666Q282 666 282 638Q282 623 272 613T250 602ZM416 602Q390 602 390 628Q390 645 400 655T422 666Q448 666 448
638Q448 623 438 613T416 602Z" />
<glyph unicode="&#xe5;" glyph-name="aring" horiz-adv-x="524" d="M186 -12Q123 -12 85 31T46 160Q46 229 68 289T126 394T209 464T306 490Q350 490 381 468T432 410H436L454 478H478L382 0H358L370 78H366Q328 39 283 14T186 -12ZM188 14Q238 14 285 42T378
122L430 372Q401 422 371 443T304 464Q259 464 218 438T144 370T93 275T74 166Q74 89 104 52T188 14ZM328 548Q295 548 272 567T248 624Q248 645 255 664T275 699T306 723T346 732Q379 732 402 713T426 656Q426 635 419 616T399 581T368 557T328 548ZM330 570Q345
570 358 576T380 594T396 621T402 654Q402 680 387 695T344 710Q329 710 316 704T294 686T278 659T272 626Q272 600 287 585T330 570Z" />
<glyph unicode="&#xe6;" glyph-name="ae" horiz-adv-x="766" d="M40 102Q40 151 63 186T130 244T234 279T370 294Q375 314 376 327T378 356Q378 407 356 435T280 464Q245 464 208 451T136 416L124 440Q157 460 199 475T282 490Q336 490 369 461T406 372Q441 426
489 458T588 490Q626 490 653 478T697 443T722 390T730 322Q730 298 727 278T718 242H390Q380 192 385 151T409 79T455 31T522 14Q557 14 589 28T648 62L662 40Q633 19 597 4T520 -12Q467 -12 426 18T370 96Q319 45 266 17T158 -12Q135 -12 114 -5T76 16T50 52T40
102ZM396 268H696Q699 283 700 297T702 328Q702 353 696 377T677 421T641 452T586 464Q557 464 527 450T472 409T426 347T396 268ZM366 268Q299 266 244 256T150 227T90 178T68 108Q68 61 95 38T164 14Q203 14 255 40T362 122Q359 143 358 161T357 196T360 230T366
268Z" />
<glyph unicode="&#xe7;" glyph-name="ccedilla" horiz-adv-x="428" d="M210 -12Q133 -12 89 36T44 176Q44 246 66 304T124 403T205 467T298 490Q339 490 366 475T418 432L398 412Q375 439 353 451T296 464Q254 464 214 442T142 380T91 290T72 182Q72 99 106 57T212
14Q250 14 282 29T342 66L358 44Q332 24 296 6T210 -12ZM82 -216L80 -192Q142 -190 173 -174T204 -132Q204 -109 187 -99T136 -86L192 2H220L178 -68Q213 -77 223 -90T234 -124Q234 -167 192 -190T82 -216Z" />
<glyph unicode="&#xe8;" glyph-name="egrave" horiz-adv-x="468" d="M44 184Q44 252 65 308T121 405T200 468T290 490Q328 490 355 478T399 443T424 390T432 322Q432 298 429 278T420 242H78Q67 182 75 139T104 68T156 27T226 14Q259 14 291 28T350 62L364 40Q335
19 299 4T224 -12Q141 -12 93 37T44 184ZM84 268H398Q401 283 402 297T404 328Q404 353 398 377T379 421T343 452T288 464Q254 464 222 450T162 409T115 347T84 268ZM340 570L226 730L252 748L360 584L340 570Z" />
<glyph unicode="&#xe9;" glyph-name="eacute" horiz-adv-x="468" d="M44 184Q44 252 65 308T121 405T200 468T290 490Q328 490 355 478T399 443T424 390T432 322Q432 298 429 278T420 242H78Q67 182 75 139T104 68T156 27T226 14Q259 14 291 28T350 62L364 40Q335
19 299 4T224 -12Q141 -12 93 37T44 184ZM84 268H398Q401 283 402 297T404 328Q404 353 398 377T379 421T343 452T288 464Q254 464 222 450T162 409T115 347T84 268ZM274 580L258 598L412 740L432 716L274 580Z" />
<glyph unicode="&#xea;" glyph-name="ecircumflex" horiz-adv-x="468" d="M44 184Q44 252 65 308T121 405T200 468T290 490Q328 490 355 478T399 443T424 390T432 322Q432 298 429 278T420 242H78Q67 182 75 139T104 68T156 27T226 14Q259 14 291 28T350 62L364
40Q335 19 299 4T224 -12Q141 -12 93 37T44 184ZM84 268H398Q401 283 402 297T404 328Q404 353 398 377T379 421T343 452T288 464Q254 464 222 450T162 409T115 347T84 268ZM192 574L174 590L318 736H346L438 588L418 574L332 706H328L192 574Z" />
<glyph unicode="&#xeb;" glyph-name="edieresis" horiz-adv-x="468" d="M44 184Q44 252 65 308T121 405T200 468T290 490Q328 490 355 478T399 443T424 390T432 322Q432 298 429 278T420 242H78Q67 182 75 139T104 68T156 27T226 14Q259 14 291 28T350 62L364
40Q335 19 299 4T224 -12Q141 -12 93 37T44 184ZM84 268H398Q401 283 402 297T404 328Q404 353 398 377T379 421T343 452T288 464Q254 464 222 450T162 409T115 347T84 268ZM230 602Q204 602 204 628Q204 645 214 655T236 666Q262 666 262 638Q262 623 252 613T230
602ZM396 602Q370 602 370 628Q370 645 380 655T402 666Q428 666 428 638Q428 623 418 613T396 602Z" />
<glyph unicode="&#xec;" glyph-name="igrave" horiz-adv-x="214" d="M44 0L140 478H168L72 0H44ZM212 570L98 730L124 748L232 584L212 570Z" />
<glyph unicode="&#xed;" glyph-name="iacute" horiz-adv-x="214" d="M44 0L140 478H168L72 0H44ZM146 580L130 598L284 740L304 716L146 580Z" />
<glyph unicode="&#xee;" glyph-name="icircumflex" horiz-adv-x="214" d="M44 0L140 478H168L72 0H44ZM64 574L46 590L190 736H218L310 588L290 574L204 706H200L64 574Z" />
<glyph unicode="&#xef;" glyph-name="idieresis" horiz-adv-x="214" d="M44 0L140 478H168L72 0H44ZM102 602Q76 602 76 628Q76 645 86 655T108 666Q134 666 134 638Q134 623 124 613T102 602ZM268 602Q242 602 242 628Q242 645 252 655T274 666Q300 666 300 638Q300
623 290 613T268 602Z" />
<glyph unicode="&#xf0;" glyph-name="eth" horiz-adv-x="514" d="M210 -12Q175 -12 146 2T95 40T62 96T50 164Q50 217 66 267T113 355T187 417T284 440Q324 440 358 418T420 359Q417 433 398 489T347 590L198 526L190 548L333 609Q310 636 284 659T226 702L242
722Q309 679 358 620L504 682L512 660L372 600Q407 550 427 487T448 340Q448 266 431 202T383 91T307 16T210 -12ZM216 14Q260 14 296 39T360 105T402 202T420 317Q408 335 394 352T363 383T326 405T282 414Q236 414 199 393T134 338T93 259T78 168Q78 137 87 109T114
60T157 27T216 14Z" />
<glyph unicode="&#xf1;" glyph-name="ntilde" horiz-adv-x="504" d="M44 0L140 478H164L152 400H156Q201 439 242 464T328 490Q390 490 416 458T442 374Q442 356 441 344T434 310L372 0H344L406 306Q411 329 412 342T414 370Q414 417 393 440T324 464Q291 464
246 439T144 358L72 0H44ZM414 580Q387 580 372 596T344 631T318 666T282 682Q253 682 236 653T210 582L184 584Q189 606 197 627T217 666T246 695T286 706Q313 706 328 690T356 655T382 620T418 604Q446 604 463 634T490 704L516 702Q511 681 503 660T483 620T454
591T414 580Z" />
<glyph unicode="&#xf2;" glyph-name="ograve" horiz-adv-x="500" d="M204 -12Q132 -12 89 36T46 176Q46 243 67 300T122 400T202 466T296 490Q368 490 411 442T454 302Q454 235 433 178T378 78T298 12T204 -12ZM206 14Q246 14 285 36T356 98T407 188T426 296Q426
379 392 421T294 464Q253 464 214 442T144 380T93 290T74 182Q74 99 108 57T206 14ZM364 570L250 730L276 748L384 584L364 570Z" />
<glyph unicode="&#xf3;" glyph-name="oacute" horiz-adv-x="500" d="M204 -12Q132 -12 89 36T46 176Q46 243 67 300T122 400T202 466T296 490Q368 490 411 442T454 302Q454 235 433 178T378 78T298 12T204 -12ZM206 14Q246 14 285 36T356 98T407 188T426 296Q426
379 392 421T294 464Q253 464 214 442T144 380T93 290T74 182Q74 99 108 57T206 14ZM298 580L282 598L436 740L456 716L298 580Z" />
<glyph unicode="&#xf4;" glyph-name="ocircumflex" horiz-adv-x="500" d="M204 -12Q132 -12 89 36T46 176Q46 243 67 300T122 400T202 466T296 490Q368 490 411 442T454 302Q454 235 433 178T378 78T298 12T204 -12ZM206 14Q246 14 285 36T356 98T407 188T426
296Q426 379 392 421T294 464Q253 464 214 442T144 380T93 290T74 182Q74 99 108 57T206 14ZM216 574L198 590L342 736H370L462 588L442 574L356 706H352L216 574Z" />
<glyph unicode="&#xf5;" glyph-name="otilde" horiz-adv-x="500" d="M204 -12Q132 -12 89 36T46 176Q46 243 67 300T122 400T202 466T296 490Q368 490 411 442T454 302Q454 235 433 178T378 78T298 12T204 -12ZM206 14Q246 14 285 36T356 98T407 188T426 296Q426
379 392 421T294 464Q253 464 214 442T144 380T93 290T74 182Q74 99 108 57T206 14ZM412 580Q385 580 370 596T342 631T316 666T280 682Q251 682 234 653T208 582L182 584Q187 606 195 627T215 666T244 695T284 706Q311 706 326 690T354 655T380 620T416 604Q444
604 461 634T488 704L514 702Q509 681 501 660T481 620T452 591T412 580Z" />
<glyph unicode="&#xf6;" glyph-name="odieresis" horiz-adv-x="500" d="M204 -12Q132 -12 89 36T46 176Q46 243 67 300T122 400T202 466T296 490Q368 490 411 442T454 302Q454 235 433 178T378 78T298 12T204 -12ZM206 14Q246 14 285 36T356 98T407 188T426 296Q426
379 392 421T294 464Q253 464 214 442T144 380T93 290T74 182Q74 99 108 57T206 14ZM254 602Q228 602 228 628Q228 645 238 655T260 666Q286 666 286 638Q286 623 276 613T254 602ZM420 602Q394 602 394 628Q394 645 404 655T426 666Q452 666 452 638Q452 623 442
613T420 602Z" />
<glyph unicode="&#xf7;" glyph-name="divide" horiz-adv-x="456" d="M48 318V344H436V318H48ZM242 114Q228 114 220 124T212 148Q212 162 220 171T242 180Q256 180 264 171T272 148Q272 134 264 124T242 114ZM242 478Q228 478 220 488T212 512Q212 526 220 535T242
544Q256 544 264 535T272 512Q272 498 264 488T242 478Z" />
<glyph unicode="&#xf8;" glyph-name="oslash" horiz-adv-x="500" d="M204 -12Q125 -12 83 45L18 -22L0 -4L69 67Q46 111 46 176Q46 243 67 300T122 400T202 466T296 490Q378 490 421 429L488 498L506 480L434 406Q454 361 454 302Q454 235 433 178T378 78T298
12T204 -12ZM74 182Q74 125 90 89L401 408Q366 464 294 464Q253 464 214 442T144 380T93 290T74 182ZM206 14Q246 14 285 36T356 98T407 188T426 296Q426 347 412 384L103 65Q136 14 206 14Z" />
<glyph unicode="&#xf9;" glyph-name="ugrave" horiz-adv-x="514" d="M468 478L372 0H348L360 80H356Q311 41 270 15T184 -12Q122 -12 96 20T70 104Q70 122 71 134T78 168L140 478H168L106 172Q101 149 100 136T98 108Q98 61 119 38T188 14Q221 14 266 39T368 120L440
478H468ZM354 570L240 730L266 748L374 584L354 570Z" />
<glyph unicode="&#xfa;" glyph-name="uacute" horiz-adv-x="514" d="M468 478L372 0H348L360 80H356Q311 41 270 15T184 -12Q122 -12 96 20T70 104Q70 122 71 134T78 168L140 478H168L106 172Q101 149 100 136T98 108Q98 61 119 38T188 14Q221 14 266 39T368 120L440
478H468ZM288 580L272 598L426 740L446 716L288 580Z" />
<glyph unicode="&#xfb;" glyph-name="ucircumflex" horiz-adv-x="514" d="M468 478L372 0H348L360 80H356Q311 41 270 15T184 -12Q122 -12 96 20T70 104Q70 122 71 134T78 168L140 478H168L106 172Q101 149 100 136T98 108Q98 61 119 38T188 14Q221 14 266 39T368
120L440 478H468ZM206 574L188 590L332 736H360L452 588L432 574L346 706H342L206 574Z" />
<glyph unicode="&#xfc;" glyph-name="udieresis" horiz-adv-x="514" d="M468 478L372 0H348L360 80H356Q311 41 270 15T184 -12Q122 -12 96 20T70 104Q70 122 71 134T78 168L140 478H168L106 172Q101 149 100 136T98 108Q98 61 119 38T188 14Q221 14 266 39T368
120L440 478H468ZM244 602Q218 602 218 628Q218 645 228 655T250 666Q276 666 276 638Q276 623 266 613T244 602ZM410 602Q384 602 384 628Q384 645 394 655T416 666Q442 666 442 638Q442 623 432 613T410 602Z" />
<glyph unicode="&#xfd;" glyph-name="yacute" horiz-adv-x="408" d="M-40 -222Q-48 -222 -59 -220T-84 -212L-72 -188Q-56 -196 -38 -196Q7 -196 45 -158T116 -54L138 -10L58 478H86L136 166Q142 131 147 94T158 24H162Q180 59 199 94T238 166L408 478H438L138
-66Q124 -94 107 -121T67 -171T19 -208T-40 -222ZM228 580L212 598L366 740L386 716L228 580Z" />
<glyph unicode="&#xfe;" glyph-name="thorn" horiz-adv-x="520" d="M0 -222L188 722H216L172 506L152 408H154Q193 440 239 465T336 490Q399 490 437 446T476 318Q476 249 454 189T396 84T312 14T216 -12Q172 -12 140 10T86 68H84L62 -42L28 -222H0ZM218 14Q263
14 304 39T378 107T429 202T448 312Q448 388 418 426T334 464Q313 464 289 457T241 438T192 408T146 372L92 102Q121 54 151 34T218 14Z" />
<glyph unicode="&#xff;" glyph-name="ydieresis" horiz-adv-x="408" d="M-40 -222Q-48 -222 -59 -220T-84 -212L-72 -188Q-56 -196 -38 -196Q7 -196 45 -158T116 -54L138 -10L58 478H86L136 166Q142 131 147 94T158 24H162Q180 59 199 94T238 166L408 478H438L138
-66Q124 -94 107 -121T67 -171T19 -208T-40 -222ZM184 602Q158 602 158 628Q158 645 168 655T190 666Q216 666 216 638Q216 623 206 613T184 602ZM350 602Q324 602 324 628Q324 645 334 655T356 666Q382 666 382 638Q382 623 372 613T350 602Z" />
<glyph unicode="&#x2013;" glyph-name="endash" horiz-adv-x="462" d="M36 238L42 264H426L418 238H36Z" />
<glyph unicode="&#x2014;" glyph-name="emdash" horiz-adv-x="768" d="M36 238L42 264H732L726 238H36Z" />
<glyph unicode="&#x2018;" glyph-name="quoteleft" horiz-adv-x="202" d="M156 498Q141 498 131 509T120 542Q120 595 147 635T220 702L232 682Q193 658 173 627T152 564H156Q170 564 179 557T188 534Q188 519 179 509T156 498Z" />
<glyph unicode="&#x2019;" glyph-name="quoteright" horiz-adv-x="202" d="M126 498L114 518Q153 542 173 573T194 636H190Q176 636 167 643T158 666Q158 681 167 691T190 702Q205 702 215 691T226 658Q226 605 199 565T126 498Z" />
<glyph unicode="&#x201a;" glyph-name="quotesinglbase" horiz-adv-x="202" d="M-5 -139L-17 -119Q22 -95 42 -64T63 -1H59Q45 -1 36 6T27 29Q27 44 36 54T59 65Q74 65 84 54T95 21Q95 -32 68 -72T-5 -139Z" />
<glyph unicode="&#x201c;" glyph-name="quotedblleft" horiz-adv-x="324" d="M156 498Q141 498 131 509T120 542Q120 595 147 635T220 702L232 682Q193 658 173 627T152 564H156Q170 564 179 557T188 534Q188 519 179 509T156 498ZM278 498Q263 498 253 509T242
542Q242 595 269 635T342 702L354 682Q315 658 295 627T274 564H278Q292 564 301 557T310 534Q310 519 301 509T278 498Z" />
<glyph unicode="&#x201d;" glyph-name="quotedblright" horiz-adv-x="324" d="M126 498L114 518Q153 542 173 573T194 636H190Q176 636 167 643T158 666Q158 681 167 691T190 702Q205 702 215 691T226 658Q226 605 199 565T126 498ZM248 498L236 518Q275 542 295
573T316 636H312Q298 636 289 643T280 666Q280 681 289 691T312 702Q327 702 337 691T348 658Q348 605 321 565T248 498Z" />
<glyph unicode="&#x201e;" glyph-name="quotedblbase" horiz-adv-x="324" d="M-5 -139L-17 -119Q22 -95 42 -64T63 -1H59Q45 -1 36 6T27 29Q27 44 36 54T59 65Q74 65 84 54T95 21Q95 -32 68 -72T-5 -139ZM117 -139L105 -119Q144 -95 164 -64T185 -1H181Q167 -1
158 6T149 29Q149 44 158 54T181 65Q196 65 206 54T217 21Q217 -32 190 -72T117 -139Z" />
<glyph unicode="&#x2022;" glyph-name="bullet" horiz-adv-x="266" d="M126 160Q90 160 66 185T42 252Q42 274 49 295T70 332T103 359T148 370Q183 370 206 345T230 278Q230 255 223 234T202 197T169 170T126 160Z" />
<glyph unicode="&#x2039;" glyph-name="guilsinglleft" horiz-adv-x="236" d="M142 74L40 240L46 272L204 428L220 412L72 252L162 86L142 74Z" />
<glyph unicode="&#x203a;" glyph-name="guilsinglright" horiz-adv-x="236" d="M36 74L20 90L168 250L78 416L98 428L200 262L194 230L36 74Z" />
</font>
</defs>
</svg>
